вход на сайт

Имя пользователя :
Пароль :

Восстановление пароля Регистрация
(2005, сборник) VA / Магия Гитары (Instrumental) [FLAC (tracks+.cue), lossless]
Рейтинг:
(голосов: 1)



[img]{THEME}/images/logopost.png[/img]



Сборник
Исполнитель: VA
Название сборника: Магия Гитары
Год выпуска: 2005
Жанр: Instrumental
Формат: FLAC (tracks+.cue)
Битрейт: lossless
Продолжительность: 03:39:01

Романтические Фантазии▼
Продолжительность: 01:13:11

Tреклист:
1.Manuel Barrueco - Forbidden Games (Jeux Interdits) (01:33)
2.Manuel Barrueco - Asturias (06:16)
3.Manuel Barrueco - Cataluna (03:34)
4.Jorge Morel - Sevilla (04:44)
5.Jorge Morel - Spanish Dance No. 5 (04:42)
6.Jorge Morel - Capricio Arabe (04:13)
7.Manuel Barrueco - Recuerdos De La Alhambra (03:14)
8.Manuel Barrueco - Spanish Dance No. 4 (05:32)
9.Manuel Barrueco - Etude No. 5 (02:14)
10.Guy Lukowski And Philippe Lemaigre - Carnaval De Venise (06:05)
11.Guy Lukowski And Philippe Lemaigre - La Romanella (02:55)
12.Guy Lukowski And Philippe Lemaigre - Fantaisie (04:04)
13.Guy Lukowski - Ramatuelle (01:39)
14.Guy Lukowski - Feste Lariane (03:27)
15.Guy Lukowski - Tango (02:19)
16.Cacho Tirao - Tango For Guitar: Adios Nonino (04:38)
17.Manuel Barrueco - Minuet, Op. 22 (02:35)
18.Manuel Barrueco - Minuets Nos. 1 & 2 From Deuxieme Concert (02:50)
19.Manuel Barrueco - Choros No. 1 (05:16)

"Отчет EAC" ▼TextExact Audio Copy V1.0 beta 2 from 29. April 2011

Отчёт EAC об извлечении, выполненном 14. сентября 2011, 19:31

Various Artists / Магия Гитары

Дисковод: TSSTcorpCDDVDW TS-L633F Adapter: 0 ID: 1

Режим чтения : Достоверность
Использование точного потока : Да
Отключение кэша аудио : Да
Использование указателей C2 : Нет

Коррекция смещения при чтении : 6
Способность читать области Lead-in и Lead-out : Нет
Заполнение пропущенных сэмплов тишиной : Да
Удаление блоков с тишиной в начале и конце : Нет
При вычислениях CRC использовались нулевые сэмплы : Нет
Интерфейс : Встроенный Win32-интерфейс для Win NT/2000
Обработка зазоров : Добавлено к предыдущему треку

Выходной формат : Пользовательский кодировщик
Выбранный битрейт : 768 kBit/s
Качество : Высокий
Добавление ID3-тега : Нет
Утилита сжатия : C:Program FilesExact Audio CopyFLACFLAC.EXE
Дополнительные параметры : -8 -V -T "ARTIST=%artist%" -T "TITLE=%title%" -T "ALBUM=%albumtitle%" -T "DATE=%year%" -T "TRACKNUMBER=%tracknr%" -T "GENRE=%genre%" -T "COMMENT=%comment%" -T "BAND=%albuminterpret%" -T "COMPOSER=%composer%" %haslyrics%--tag-from-


TOC извлечённого CD

Трек | Старт | Длительность | Начальный сектор | Конечный сектор
---------------------------------------------------------------------
1 | 0:00.00 | 1:33.11 | 0 | 6985
2 | 1:33.11 | 6:16.54 | 6986 | 35239
3 | 7:49.65 | 3:34.50 | 35240 | 51339
4 | 11:24.4
a3abec696bc2bbf4cbe82a920082253d1cb3f4be(2005, сборник) VA / Магия Гитары (Instrumental) [FLAC (tracks+.cue), lossless] (2005, сборник) VA / Магия Гитары (Instrumental) [FLAC (tracks+.cue), lossless] " />

Аплоадер: Админ, дата: 15-09-2011, 14:40, торрент скачан: 359 раз

Понравилась раздача? Посмотрите эти:
  • (2012) Sting / Fifteen Healing Bites (Pop Rock)(Chinese Dragon) [FLAC (trac ...
  • (2013) Смоки Мо / Младший (Rap, Hip-Hop) [FLAC (Tracks+.Cue), Lossless]
  • (2013) Маклай и Ганза / Статус-Кво (Rap, Hip-Hop) [FLAC (Tracks+.Cue), Loss ...
  • (2013) Lone / Спутник (Rap, Hip-Hop) [FLAC (Tracks+.Cue), Lossless]
  • (2013) Стриж / Игристое (Rap, Hip-Hop) [FLAC (Tracks+.Cue), Lossless]
  • (2013) Баста / Баста 4 (Rap, Hip-Hop) [FLAC (Tracks+.Cue), Lossless]
  • (2013) Loc-Dog & Tony VA / Все знают всё (Rap, Hip-Hop) [FLAC (Tracks+.Cue ...
  • (1989) Fausto Papetti / Magic Sax [Vol. 2] (Instrumental) [FLAC (tracks+.cu ...
  • (2012) Рем Дигга / Черника (Rap) [FLAC (tracks+.cue), lossless]
  • (2012) Три Кита (Зануда, Gipsy King, Тато) / Три Кита (Rap) [FLAC (tracks+. ...
  • (2011) ГРОТ / О Пути По Встречной (Rap) [FLAC (tracks+.cue), lossless]
  • (2012) The Rasmus / The Rasmus (Alternative Rock/Melodic Rock) [FLAC (track ...
  • (1993) Mireille Mathieu / Chante Piaf (Pop) [FLAC (tracks+.cue), lossless]
  • (2011, Сборник) VA / The Worlds Greatest Ballads (3CD) (Pop) [FLAC (tracks+ ...
  • (2005) Анна Герман / Наши любимые песни (Pop, Retro) [FLAC(image+.cue), los ...
  • (2012) Guf / Сам И ... (Rap) [FLAC (tracks+.cue), lossless]
  • (2012) Адвайта / Не спать (Rap) [FLAC (tracks+.cue), lossless]
  • (2012) Триада / Мои глаза открыты (Rap) [FLAC (tracks+.cue), lossless]
  • (2012) KREC / Молча проще (Rap) [FLAC (tracks+.cue), lossless]
  • (2012) Птаха / Старые тайны (Rap) [FLAC (tracks+.cue), lossless]
  • (2012) Rammstein / Mein Herz brennt (Industrial, Tanz-Metal) [FLAC (tracks ...
  • (2009, сборник) VA / Классика Навсегда (Classical) [FLAC (tracks+.cue), los ...
  • (2011) Ассаи / ОМ (Rap) [FLAC (tracks+.cue), lossless]
  • (2012) Ария / Live In Studio (Heavy Metal) [FLAC (image+.сue), lossless]
  • (2012) Словетский / Мозайка (Rap) [FLAC (tracks+.cue), lossless]
  • Информация
    Посетители, находящиеся в группе Гости, не могут оставлять комментарии к данной публикации.