вход на сайт

Имя пользователя :
Пароль :

Восстановление пароля Регистрация
(2004) Старинные вальсы / Old Waltzes (Waltz, Soviet) [WavPack (image+.cue), [NL+0802] lossless] [MEL CD 60 00835]
Рейтинг:
(голосов: 1)



[img]{THEME}/images/logopost.png[/img]



Альбом: Старинные вальсы / Old Waltzes
Исполнитель: отдельный показательный оркестр Министерства Обороны СССР
Дирижеры: Н.Назаров (треки №1-7,9-13), Я. Сергеев (8)

Образцово-показательный оркестр внутренних войск МВД СССР
Дирижер В. Макаров (14,15)

Год выпуска: записи 1969 (треки №1-6), 1965 (7-9), 1972 (10-13), 1988 (14,15) гг.
Страна: СССР
Продолжительность: 65:12 минут
Жанр: Вальс (Soviet Waltzes)
Лейбл: Мелодия [MEL CD 60 00835]

Качество: lossless (рип стандарта NL+0802)
Кодек: WavPack
Формат: image+.cue
Обложки: полностью включены, PNG 1200dpi, 2 x reduced + матрица

Описание: В XVIII веке кончилась блистательная эпоха менуэта и гавота. И хотя в девятнадцатом столетии они продолжали еще существовать, на смену им шли новые танцы, более свободные и непринужденные.
Особое место среди них принадлежит вальсу. Народное происхождение вальса не вызывает сомнения, он родился из многих танцев разных народов Европы в 70-х годах XVIII века. Непосредственный предшественник вальса - лендлер, крестьянский танец, возникший в альпийских областях Южной Германии и Австрии. В переводе слово «вальс» означает — выкручивать ногами в танце, кружиться…
Известнейшие вальсы в настоящем, классическом исполнении — играют духовые оркестры:
Отдельный показательный оркестр Министерства Обороны СССР

Образцово-показательный оркестр внутренних войск МВД СССР.

Это записи 70-x — 80-х годов, так что качество записи уже достаточно высокое — никакой «реставрации», отличный живой звук. Великолепные аранжировки — насыщенные и с богатой фактурой. Рекомендую всем любителям музыки.

Треклист:
01. На сопках Маньчжурии...(2:56)
02. Дунайские волны...(4:50)
03. Берёзка...(4:24)
04. Лесная сказка...(2:39)
05. Воспоминание...(4:52)
06. Орхидея...(3:30)
07. Амурские волны...(3:05)
08. Ожидание...(3:48)
09. Над волнами...(5:03)
10. Оборванные струны...(2:36)
11. Грёзы...(5:04)
12. Голубая ночь...(3:06)
13. Судьба...(5:45)
14. Сирены...(8:24)
15. Осенний сон...(5:10)
"EAC log" ▼TextExact Audio Copy V0.99 prebeta 4 from 23. January 2008

Отчёт EAC об извлечении, выполненном 4. декабря 2008, 19:41

Старинные вальсы / Old Waltzes

Дисковод: ASUS DRW-1814BLT Adapter: 3 ID: 0

Режим чтения : Достоверность
Использование точного потока : Да
Отключение кэша аудио : Да
Использование указателей C2 : Нет

Комбинированное смещение чтения/записи : 6
Способность читать области Lead-in и Lead-out : Нет
Заполнение пропущенных сэмплов тишиной : Да
Удаление блоков с тишиной в начале и конце : Нет
При вычислениях CRC использовались нулевые сэмплы : Да
Интерфейс : Установленный внешний ASPI-интерфейс

Выходной формат : Внутренние WAV-операции
Формат сэмплов : 44.100 Гц; 16 бит; стерео


TOC извлечённого CD

Трек | Старт | Длительность | Начальный сектор | Конечный сектор
---------------------------------------------------------------------
1 | 0:00.00 | 2:55.42 | 0 | 13166
2 | 2:55.42 | 4:50.08 | 13167 | 34924
3 | 7:45.50 | 4:24.05 | 34925 | 54729
&nbs
0138f7fcddffe5d61e56237682817277dc875e67(2004) Старинные вальсы / Old Waltzes (Waltz, Soviet) [WavPack (image+.cue), [NL+0802] lossless] [MEL CD 60 00835] (2004) Старинные вальсы / Old Waltzes (Waltz, Soviet) [WavPack (image+.cue), [NL+0802] lossless] [MEL CD 60 00835] " />

Аплоадер: Админ, дата: 30-07-2010, 20:18, торрент скачан: 359 раз

Понравилась раздача? Посмотрите эти:
  • (2012) Григорий Лепс / Полный вперёд (Шансон) [FLAC (image+.cue), Lossless ...
  • (2004) ELLA FITZGERALD - The Best Of Ella Fitzgerald - Summertime(Vocal Jaz ...
  • (2005) Дильназ Ахмадиева — Золотой (Pop), (WV, image+.cue) [NL+0802] lossle ...
  • (1989, 1991, 1992, 1993) Nirvana — 4 альбома (Grunge) [WavPack (image+.cue) ...
  • (дискография, 1983-2008) MADONNA (pop / dance) [WavPack (image+.cue) lossle ...
  • (2009) НОЧНЫЕ СНАЙПЕРЫ — Живаго в Лужниках (русский рок) [WAVPack (lossless ...
  • (2000) Tic Tac Toe / Ist der Ruf erst ruiniert... (Rap,Hip-hop) [Lossless, ...
  • (2008) НоГГано / Первый (Rap) [APE(image+cue), lossless]
  • (1994) Joy / Grand Collection (EuroDisco) [FLAC (image+.cue) lossless]
  • (2010) Ласковый Май (Солист Юра Шатунов) / Оригинальные записи 1988-1989 (2 ...
  • (2010) ST1M / Октябрь (Rap) [APE(image+.cue), lossless]
  • (2010) ДиДюЛя / Аромат (flamenco, instrumental, folk) [APE (image + .cue), ...
  • (1984) Boney M / Ten Thousand Lightyears (Disco) [APE (image+.cue) lossles ...
  • (2010) ДаБац (Da Budz) / Вершки Да Корешки(Rap) [APE (image+.cue), lossless ...
  • (2011) Within Temptation / The Unforgiving (Symphonic Gothic Metal) [FLAC ( ...
  • (2011) АлисА / 20.12 (Русский Рок) [WavPack (image+.cue), lossless]
  • (1977) Отдельный показательный оркестр МО СССР - Старинные марши и вальсы д ...
  • (2010) Арнау — Махаббат жыры / Песни о любви (Pop) [WavPack (image+.cue), [ ...
  • (2004) Ex-Сектор Газа / Огненный рай (Punk-Rock) [FLAC (image+.cue), lossle ...
  • (2008) Студия 80 / Придуманный Мир (Pop) [FLAC (image+.cue), lossless]
  • Информация
    Посетители, находящиеся в группе Гости, не могут оставлять комментарии к данной публикации.