вход на сайт

Имя пользователя :
Пароль :

Восстановление пароля Регистрация
(1988) James Last / Romantic Love Songs (Instrumental) [FLAC (image+.cue) lossless]
Рейтинг:
(голосов: 1)



[img]{THEME}/images/logopost.png[/img]



Исполнитель: James Last
Альбом: Romantic Love Songs
Тип альбома: Студийный (LP)
Год выпуска: 1988
Жанр: Instrumental
Формат: FLAC (image+.cue)
Битрейт: lossless
Продолжительность: 00:52:44

Треклист:
[04:38] 01. Unchained Melody
[03:39] 02. I Dont Know How To Love Him
[03:52] 03. Theme From Love Story
[03:47] 04. If You Could Read My Mind
[04:08] 05. Killing Me Softly
[04:18] 06. I Only Have Eyes For You
[02:59] 07. Endless Love
[04:20] 08. I Just Called To Say I Love You
[04:30] 09. Hey Jude
[05:26] 10. You Make Me Feel Brand New
[02:51] 11. Whithout You
[03:14] 12. Ballade Pour Adeline
[02:59] 13. What Now My Love
[03:37] 14. Wedding Song (There Is Love)

Отчет EAC:
▼Exact Audio Copy V0.99 prebeta 4 from 23. January 2008

Отчёт EAC об извлечении, выполненном 15. января 2010, 16:44

James Last / Romantic Love Songs

Дисковод: Optiarc DVD RW AD-7173A Adapter: 1ID: 0

Режим чтения : Достоверность
Использование точного потока : Да
Отключение кэша аудио: Да
Использование указателей C2: Нет

Коррекция смещения при чтении : 48
Способность читать области Lead-in и Lead-out : Нет
Заполнение пропущенных сэмплов тишиной: Да
Удаление блоков с тишиной в начале и конце: Нет
При вычислениях CRC использовались нулевые сэмплы : Да
Интерфейс : Установленный внешний ASPI-интерфейс

Выходной формат: Пользовательский кодировщик
Выбранный битрейт: 768 kBit/s
Качество : Высокий
Добавление ID3-тэга: Нет
Утилита сжатия : C:Program FilesExact Audio CopyFLACFLAC.EXE
Дополнительные параметры : -6 -V -T "ARTIST=%a" -T "TITLE=%t" -T "ALBUM=%g" -T "DATE=%y" -T "TRACKNUMBER=%n" -T "GENRE=%m" -T "COMMENT=%e" %s -o %d


TOC извлечённого CD

Трек | Старт| Длительность | Начальный сектор | Конечный сектор
---------------------------------------------------------------------
1|0:00.00 |4:38.13 | 0|20862
2|4:38.13 |3:39.14 | 20863|37301
3|8:17.27 |3:52.01 | 37302|54702
4| 12:09.28 |3:47.41 | 54703| 
fd83166a5832c29e7905ad1ee11826445c4bead0(1988) James Last / Romantic Love Songs (Instrumental) [FLAC (image+.cue) lossless] (1988) James Last / Romantic Love Songs (Instrumental) [FLAC (image+.cue) lossless] " />

Аплоадер: Админ, дата: 8-03-2010, 03:30, торрент скачан: 359 раз

Понравилась раздача? Посмотрите эти:
  • (1993) Coverdale & Page / Coverdale & Page (EMI Holland)(Hard Rock) [FLAC ( ...
  • (2000) a-ha / Minor Earth | Major Sky (Alternative Rock, Synth-pop ) [FLAC ...
  • (2003) Eagles / The Very Best Of Eagles (Rock) ( 2CD Warner USA) [FLAC (ima ...
  • (1995) Corona / The Rhythm Of The Night (Japan) (Eurodance) [FLAC (image+. ...
  • (2013) Pinnick Gales Pridgen / Pinnick Gales Pridgen (Hard Rock, Heavy Blue ...
  • (2010) Мафик / Ангел (Шансон) [FLAC(image+cue), lossless]
  • (2004) VA / Инструментальная музыка - Лучшие мировые хиты (Instrumental) [A ...
  • (1999) Ennio Morricone / Romantic Collection (Classical) [FLAC (image+.cue) ...
  • (1994) Joy / Grand Collection (EuroDisco) [FLAC (image+.cue) lossless]
  • (1999) Paul Mauriat / Diamond Collections (Instrumental,Easy Listening) [FL ...
  • (2006) Tokio / puls 200 (Alternative Rock / Pop Rock) [FLAC (image+.cue) lo ...
  • (2010) БИ-2 / О чём говорят мужчины (Pop-Rock) [FLAC (image + .cue), lossle ...
  • (2004) Genesis / Platinum Collection (Art Rock) [FLAC (image+.cue), lossles ...
  • (1997) Jazz Cafe / Simple Pleasures (Jazz, instrumental) [FLAC (image+.сue ...
  • (Дискография, 2006-2011) Светлана Копылова (Православная песня) [FLAC (imag ...
  • (2009) Rihanna / Rated R (R`n`B) [APE (image+.cue)]
  • (2006) УЛЫТАУ / ULYTAU - Жумыр-Кылыш / Jumyr-Kylysh (ethnic / folk metal / ...
  • (2010) Lara Fabian / The Best of (2CD Limited Edition) (Pop) [Flac(image+.c ...
  • (1988) Fausto Papetti / Grand Collection (POP, Jazz) [FLAC (image+.cue), lo ...
  • (1995) Yaki-Da / Pride (Pop, Eurodance) [FLAC (image+.сue), lossless]
  • Информация
    Посетители, находящиеся в группе Гости, не могут оставлять комментарии к данной публикации.