вход на сайт

Имя пользователя :
Пароль :

Восстановление пароля Регистрация
(1999) Paul Mauriat / Diamond Collections (Instrumental,Easy Listening) [FLAC (image+.cue) lossless]
Рейтинг:
(голосов: 1)



[img]{THEME}/images/logopost.png[/img]



Исполнитель: Paul Mauriat
Альбом: Diamond Collections
Тип альбома: Студийный (LP)
Год выпуска: 1999
Жанр: Instrumental,Easy Listening
Формат: FLAC(image+.cue)
Битрейт: lossless
Продолжительность: 01:13:56

Треклист:
[02:35] 01. El Bimbo
[02:40] 02. Toccata
[02:39] 03. Padrino
[02:48] 04. Parpluies De Cherbourg
[02:51] 05. Mamy Blue
[04:07] 06. La Gazza Ladra
[03:03] 07. Love Story
[02:45] 08. Brasilia Carnaval
[03:07] 09. Sur Un Air Du Vivaldi
[01:24] 10. Badinerie
[02:47] 11. Moulins De Mon Coeur
[02:36] 12. Love is Blue
[02:30] 13. The Summer Knows
[03:27] 14. Memory
[02:23] 15. Un Home Et Femme
[02:11] 16. Theme de Borsalino
[02:22] 17. Minuetto
[03:33] 18. Le Passager De La Pluie
[03:32] 19. LEte Indien Africa
[03:18] 20. Dis-Lui Feelings
[02:11] 21. Alouette
[03:13] 22. Good Bye My Love Good Bye
[02:52] 23. Vivre Pour Vivre
[02:53] 24. Melodie
[03:07] 25. Mrs. Robinson
[02:54] 26. Je Ne Suis Que De LAmour

Отчет EAC:
▼Exact Audio Copy V0.99 prebeta 4 from 23. January 2008

Отчёт EAC об извлечении, выполненном 23. августа 2009, 17:39

Paul Mauriat /Diamond Collections

Дисковод: TSSTcorpCDDVDW SH-S202J Adapter: 1ID: 1

Режим чтения : Достоверность
Использование точного потока : Да
Отключение кэша аудио: Да
Использование указателей C2: Нет

Коррекция смещения при чтении : 6
Способность читать области Lead-in и Lead-out : Нет
Заполнение пропущенных сэмплов тишиной: Да
Удаление блоков с тишиной в начале и конце: Нет
При вычислениях CRC использовались нулевые сэмплы : Да
Интерфейс : Установленный внешний ASPI-интерфейс

Выходной формат : Внутренние WAV-операции
Формат сэмплов: 44.100 Гц; 16 бит; стерео


TOC извлечённого CD

Трек | Старт| Длительность | Начальный сектор | Конечный сектор
---------------------------------------------------------------------
1|0:00.00 |2:35.04 | 0|11628
2|2:35.04 |2:40.40 | 11629|23668
3|5:15.44 |2:39.02 | 23669|35595
4|7:54.46 |2:48.41 | 35596|48236
5| 10:43.12 |2:51.41 | 48237|
a8c3dd9cf2f0c25a447f977cdab80bdbfe0f6ff6(1999) Paul Mauriat / Diamond Collections (Instrumental,Easy Listening) [FLAC (image+.cue) lossless] (1999) Paul Mauriat / Diamond Collections (Instrumental,Easy Listening) [FLAC (image+.cue) lossless] " />

Аплоадер: Админ, дата: 4-03-2010, 15:19, торрент скачан: 359 раз

Понравилась раздача? Посмотрите эти:
  • (2000) Lenny Kravitz / Greatest Hits (Rock, Funk) [FLAC (image+.cue), lossl ...
  • (2013) Paul Mauriat / Tout pour la musique & Roma dalla Finestra (Instrumen ...
  • (2012) Григорий Лепс / Полный вперёд (Шансон) [FLAC (image+.cue), Lossless ...
  • (1997-2009, сборник) Paul Mauriat / Collection (4CD) (Instrumental) [MP3, ...
  • (1998) The Ventures & The Shadows / Grand Collection(Instrumental, Guit ...
  • (2004) VA / Инструментальная музыка - Лучшие мировые хиты (Instrumental) [A ...
  • (1999) Ennio Morricone / Romantic Collection (Classical) [FLAC (image+.cue) ...
  • (1994) Joy / Grand Collection (EuroDisco) [FLAC (image+.cue) lossless]
  • (1988) James Last / Romantic Love Songs (Instrumental) [FLAC (image+.cue) l ...
  • (2006) Батырхан Шукенов/ Отан Ана (Pop) [FLAC (image+.cue) lossless]
  • (2010) ДиДюЛя / Аромат (flamenco, instrumental, folk) [APE (image + .cue), ...
  • (2011) Within Temptation / The Unforgiving (Symphonic Gothic Metal) [FLAC ( ...
  • (1998) Paul Mauriat / World Love Sounds [5CD] (Easy Listening) [FLAC (image ...
  • (2011) Blues Cousins / KGB Blues (Blues Rock) [FLAC (image+.cue), lossless] ...
  • (1997) Jazz Cafe / Simple Pleasures (Jazz, instrumental) [FLAC (image+.сue ...
  • (Дискография, 1986 - 1999) Crimson Glory (Progressive Heavy Metal) [FLAC (i ...
  • (2009) Rihanna / Rated R (R`n`B) [APE (image+.cue)]
  • (2006) УЛЫТАУ / ULYTAU - Жумыр-Кылыш / Jumyr-Kylysh (ethnic / folk metal / ...
  • ( 2001) Воскресение / Звездная коллекция (Rock) [FLAC (image+.cue) lossless ...
  • (2010) Lara Fabian / The Best of (2CD Limited Edition) (Pop) [Flac(image+.c ...
  • (1988) Fausto Papetti / Grand Collection (POP, Jazz) [FLAC (image+.cue), lo ...
  • (1995) Yaki-Da / Pride (Pop, Eurodance) [FLAC (image+.сue), lossless]
  • (2000) Парк Горького (Gorky Park) / The Best (Glam Metal/Hard Rock) [FLAC ...
  • (2004) Ex-Сектор Газа / Огненный рай (Punk-Rock) [FLAC (image+.cue), lossle ...
  • (2008) Студия 80 / Придуманный Мир (Pop) [FLAC (image+.cue), lossless]
  • Информация
    Посетители, находящиеся в группе Гости, не могут оставлять комментарии к данной публикации.