вход на сайт

Имя пользователя :
Пароль :

Восстановление пароля Регистрация
(1998) The Ventures & The Shadows / Grand Collection(Instrumental, Guitar) [FLAC (track+.cue) lossless]
Рейтинг:
(голосов: 1)



[img]{THEME}/images/logopost.png[/img]



The Ventures & The Shadows
Исполнитель: The Ventures & The Shadows
Альбом: Grand Collection
Тип альбома: Compilation
Жанр: Instrumental, Guitar
Год выпуска: 1998
Формат: FLAC (track+.cue)
Битрейт: lossless
Продолжительность: 01:12:57

Треклист:
▼01. Endless Dream (02:07)
02. Vibrations (03:01)
03. Shinding (02:17)
04. Hokaido Skies (02:08)
05. The House Of The Rising Sun (02:56)
06. Theme For Young Lovers (02:36)
07. Aquarius / Let The Sunshine In (02:39)
08. Expo Seven-O (02:32)
09. Apache (02:58)
10. Walk - Dont Run (02:04)
11. Perfida (02:03)
12. Man Of Mystery (01:59)
13. Detour (01:22)
14. Telstar (02:42)
15. Geronimo (02:16)
16. Trambone (02:01)
17. Night Stick (02:02)
18. Wonderful Land (02:15)
19. Slaughter On Tenth Avenue (02:15)
20. Diamond Head (02:03)
21. Genie With The Light Broun Lamp (02:41)
22. Rap City (02:01)
23. Hernandos Hideaway (02:22)
24. Foot Trapper (02:31)
25. Sleep Walk (02:26)
26. Ginza Lights (02:04)
27. Atlantis (02:48)
28. Road To Somewhere (02:13)
29. Bombay Duck (01:56)
30. Riders In The Sky (03:20)
31. Hallelujah (02:06)

Отчёт EAC:▼Exact Audio Copy V0.99 prebeta 5 from 4. May 2009

Отчёт EAC об извлечении, выполненном 12. сентября 2009, 14:11

The Ventures & The Shadows / Grand Collection

Дисковод: PIONEER DVD-RWDVR-216D Adapter: 0ID: 0

Режим чтения : Достоверность
Использование точного потока : Да
Отключение кэша аудио: Да
Использование указателей C2: Нет

Коррекция смещения при чтении : 96
Способность читать области Lead-in и Lead-out : Нет
Заполнение пропущенных сэмплов тишиной: Да
Удаление блоков с тишиной в начале и конце: Нет
При вычислениях CRC использовались нулевые сэмплы : Да
Интерфейс : Установленный внешний ASPI-интерфейс

Выходной формат : Внутренние WAV-операции
Формат сэмплов: 44.100 Гц; 16 бит; стерео


TOC извлечённого CD

Трек | Старт| Длительность | Начальный сектор | Конечный сектор
---------------------------------------------------------------------
1|0:00.00 |2:07.28 | 0| 9552
2|2:07.28 |3:01.33 |9553|23160
3|5:08.61 |2:17.00 | 23161|33435
4|7:25.61 |2:08.35 | 33436|43070
&nbs
6c78beaf7ec9d70e821c888501e53d70437ecaf7(1998) The Ventures & The Shadows / Grand Collection(Instrumental, Guitar) [FLAC (track+.cue) lossless] (1998) The Ventures & The Shadows / Grand Collection(Instrumental, Guitar) [FLAC (track+.cue) lossless] " />

Аплоадер: Админ, дата: 19-01-2010, 01:01, торрент скачан: 359 раз

Понравилась раздача? Посмотрите эти:
  • (1999, сборник) VA / Romantic Collection(Pok) [FLAC (track+.cue) lossless]
  • (2004) VA / Инструментальная музыка - Лучшие мировые хиты (Instrumental) [A ...
  • (1999) Ennio Morricone / Romantic Collection (Classical) [FLAC (image+.cue) ...
  • (2004) VA / Инструментальная музыка - Лучшие мировые хиты Vol.7 (2CD) (Inst ...
  • (2008) ST / Сто из Ста (Rap) [FLAC(track+.cue), lossless]
  • (1994) Joy / Grand Collection (EuroDisco) [FLAC (image+.cue) lossless]
  • (1999) Paul Mauriat / Diamond Collections (Instrumental,Easy Listening) [FL ...
  • (1988) James Last / Romantic Love Songs (Instrumental) [FLAC (image+.cue) l ...
  • (2003) Joe Dassin / Grand Collection (PopMusic, Chanson) [FLAC (track+ cue) ...
  • (2002) Ирина Аллегрова / Grand Collection (Pop) [APE (image+.cue) lossless] ...
  • (2006) Батырхан Шукенов/ Отан Ана (Pop) [FLAC (image+.cue) lossless]
  • (2010) ДиДюЛя / Аромат (flamenco, instrumental, folk) [APE (image + .cue), ...
  • (2010) Loc-Dog / Паранойя (Rap) [FLAC (track+.cue), lossless]
  • (2011) Within Temptation / The Unforgiving (Symphonic Gothic Metal) [FLAC ( ...
  • (2004) Genesis / Platinum Collection (Art Rock) [FLAC (image+.cue), lossles ...
  • (1997) Jazz Cafe / Simple Pleasures (Jazz, instrumental) [FLAC (image+.сue ...
  • (2003) Joe Dassin / Grand Collection (Pop/Chanson) [FLAC (tracks+.cue), los ...
  • (1988) Fausto Papetti / Grand Collection (POP, Jazz) [FLAC (image+.cue), lo ...
  • (1995) Yaki-Da / Pride (Pop, Eurodance) [FLAC (image+.сue), lossless]
  • (2008) Студия 80 / Придуманный Мир (Pop) [FLAC (image+.cue), lossless]
  • Информация
    Посетители, находящиеся в группе Гости, не могут оставлять комментарии к данной публикации.