вход на сайт

Имя пользователя :
Пароль :

Восстановление пароля Регистрация
(2001, сборник) VA - Одинокий пастух Vol.3 - Галерея инструментальной музыки (classical) [FLAC (tracks + .cue) lossless]
Рейтинг:
(голосов: 1)



[img]{THEME}/images/logopost.png[/img]



Сборник
Название: Одинокий пастух Vol.3 - Галерея инструментальной музыки
Год выпуска: 2001 (Студия СВТ)
Жанр: Инструментальная музыка
Формат: FLAC (tracks + .cue)
Битрейт: lossless ~959 kbps
Продолжительность: 00:58:52

Tрэклист:
[04:10] 01 The Lonely Shepherd - J. Last
[04:42] 02 You And Me - L. Subramaniam
[02:51] 03 Aria De Sirna - Saint - Preux
[03:22] 04 Masquerade - Khatehaturian / S. Gray
[03:27] 05 Jalouse Andalouse - P. De Senneville
[03:21] 06 Storm Rider - H. Lingerfelder /R. Heck
[01:35] 07 Friends - E. Morricone
[02:35] 08 Isadora Hernandos - M. Jarre
[04:01] 09 Once Upon A Time (Theme) - P. Belotte / Moroder / D. Sammer
[03:59] 10 The War Of The Worlds - J. Wayne
[03:08] 11 Me To You - F. Duval
[04:12] 12 Giorgio - Vangarde / Kluger
[03:33] 13 Corfu My Love - R. Benatar / Kolenberg
[04:53] 14 Marrakesh - Cretu / Kunze
[02:56] 15 Concerto Pour Une Voix - C. Langlade
[03:13] 16 Farewell - F. Duval
[02:47] 17 Cafe Concert - F. Weyer

Отчет EAC:▼
Exact Audio Copy V0.99 prebeta 5 from 4. May 2009

Отчёт EAC об извлечении, выполненном 22. сентября 2009, 15:17

Unknown Artist / Unknown Title

Дисковод: SONYDVD RW DW-G120A Adapter: 0ID: 0

Режим чтения : Достоверность
Использование точного потока : Да
Отключение кэша аудио: Да
Использование указателей C2: Нет

Комбинированное смещение чтения/записи: 0
Способность читать области Lead-in и Lead-out : Нет
Заполнение пропущенных сэмплов тишиной: Да
Удаление блоков с тишиной в начале и конце: Нет
При вычислениях CRC использовались нулевые сэмплы : Нет
Интерфейс : Встроенный Win32-интерфейс для Win NT/2000
Обработка зазоров : Не обнаружено, добавлено к предыдущему треку

Выходной формат : Внутренние WAV-операции
Формат сэмплов: 44.100 Гц; 16 бит; стерео


TOC извлечённого CD

Трек | Старт| Длительность | Начальный сектор | Конечный сектор
---------------------------------------------------------------------
1|0:00.00 |4:10.65 | 0|18814
2|4:10.65 |4:42.44 | 18815|40008
3|8:53.34 |2:51.32 | 40009|52865
4| 11:44.66 |3:22.17 | 52866|&nbs
64cc205aa95f851a2d117d68b60d3bb64e3a15b0(2001, сборник) VA - Одинокий пастух Vol.3 - Галерея инструментальной музыки (classical) [FLAC (tracks + .cue) lossless] (2001, сборник) VA - Одинокий пастух Vol.3 - Галерея инструментальной музыки (classical) [FLAC (tracks + .cue) lossless] " />

Аплоадер: Админ, дата: 23-10-2009, 15:34, торрент скачан: 359 раз

Понравилась раздача? Посмотрите эти:
  • (2003, сборник) VA - Одинокий пастух Vol.6 - Галерея инструментальной музык ...
  • (2001, сборник) VA - Одинокий пастух Vol.2 - Галерея инструментальной музык ...
  • (2001, сборник) VA - Одинокий пастух Vol.3 - Галерея инструментальной музык ...
  • (2009, сборник) VA - Одинокий пастух Vol.7 - Галерея инструментальной музык ...
  • (2009, сборник) VA - Одинокий пастух Vol.8 - Галерея инструментальной музык ...
  • (2009, сборник) VA - Одинокий пастух Vol.9 - Галерея инструментальной музык ...
  • (2009, сборник) VA - Одинокий пастух Vol.10 - Галерея инструментальной музы ...
  • (2009) НОЧНЫЕ СНАЙПЕРЫ — Южный полюс (русский рок, сингл) [FLAC (lossless), ...
  • (2003, сборник) VA - Одинокий пастух Vol.5 - Галерея инструментальной музык ...
  • (2001, сборник) VA / Одинокий пастух Vol.1 - Галерея инструментальной музык ...
  • (2001, сборник) VA / Одинокий пастух Vol.2 - Галерея инструментальной музык ...
  • (1999) Ennio Morricone / Romantic Collection (Classical) [FLAC (image+.cue) ...
  • (2010) Krec / Осколки (Rap) [FLAC (tracks+.cue), lossless]
  • (1958) Louis Armstrong / Louis And The Good Book [2001 Remaster] (Jazz, Go ...
  • (2011) Легенды Про / Желтый Дом (Rap) [FLAC (tracks+.cue), Lossless]
  • (2002, сборник) VA - Одинокий пастух Vol.4 - Галерея инструментальной музык ...
  • (2002, сборник) VA - Одинокий пастух Vol.4 - Галерея инструментальной музык ...
  • (2003, сборник) VA - Одинокий пастух Vol.5 - Галерея инструментальной музык ...
  • (2001, сборник) VA - Одинокий пастух Vol.1 - Галерея инструментальной музык ...
  • ( 2001) Воскресение / Звездная коллекция (Rock) [FLAC (image+.cue) lossless ...
  • (2009, сборник) VA - Одинокий пастух Vol.11 - Галерея инструментальной музы ...
  • (2009, сборник) VA - Одинокий пастух Vol.12 - Галерея инструментальной музы ...
  • (2009, сборник) VA - Одинокий пастух Vol.13 - Галерея инструментальной музы ...
  • (2011) Ассаи / ОМ (Rap) [FLAC (tracks+.cue), lossless]
  • (2012) Влади (Каста) / Ясно! (Rap) [ FLAC (tracks+.cue), lossless]
  • Информация
    Посетители, находящиеся в группе Гости, не могут оставлять комментарии к данной публикации.