вход на сайт

Имя пользователя :
Пароль :

Восстановление пароля Регистрация
(1996) Jingle Bells — The London Studio Orchestra & Cathedral City Project (Christmas, Instrumental, Chorus) [FLAC (image+.cue), lossless]
Рейтинг:
(голосов: 1)



[img]{THEME}/images/logopost.png[/img]



Исполнитель: The London Studio Orchestra & Cathedral City Project, The United Studio Orchestra & The United Choral Singers
Альбом: Jingle Bells
Страна: США
Тип альбома: студийный
Год выпуска: 1996
Жанр: Christmas, Instrumental, Chorus
Лейбл: E.E.C.
Формат: FLAC (image+.cue)
Битрейт: lossless
Продолжительность: 60:53 минут

Треклист:01. The United Studio Orchestra & The United Choral Singers - Jingle Bells...(2:08)
02. The United Studio Orchestra & The United Choral Singers - We Wish You a Merry......(3:53)
03. Cathedral City Project - Greensleeves...(3:47)
04. The London Studio Orchestra - The First Noel...(2:59)
05. The United Studio Orchestra & The United Choral Singers - Silent Night...(2:20)
06. The United Studio Orchestra - The Holly and the Ivy...(2:06)
07. The London Studio Orchestra - Oh, Christmas Tree...(2:30)
08. The London Studio Orchestra & The Merry Carol Singers - Ding Dong! Merrily On......(2:36)
09. The London Studio Orchestra & The Merry Carol Singers - Oh Come, All Ye Faithful...(3:24)
10. The United Studio Orchestra - Oh Little Town of Bethlehem...(2:50)
11. The United Studio Orchestra & The United Choral Singers - Jolly Old St. Nicholas...(2:40)
12. The United Studio Orchestra - Hark, The Herald Angels Sing...(3:16)
13. The United Studio Orchestra - It Came Upon a Midnight Clear...(3:00)
14. The United Studio Orchestra & The United Choral Singers - Joy to the World...(1:55)
15. Cathedral City Project - We Three Kings of Orient Are...(3:06)
16. The United Studio Orchestra & The United Choral Singers - Deck the Halls...(1:42)
17. Cathedral City Project - Holy Night...(4:08)
18. Cathedral City Project - Away in a Manger...(4:02)
19. The United Studio Orchestra & The United Choral Singers - Good King Wenceslas...(2:23)
20. Cathedral City Project - God Rest Ye Merry Gentlemen...(3:57)
21. Cathedral City Project - Angels We Have Heard On High...(2:12)
EAC log ▼TextExact Audio Copy V0.99 prebeta 4 from 23. January 2008
Отчёт EAC об извлечении, выполненном 30. октября 2008, 23:37
Various Artists / Jingle Bells
Дисковод: TSSTcorpCD/DVDW SH-W162L Adapter: 0 ID: 0
Режим чтения : Достоверность
Использование точного потока : Да
Отключение кэша аудио : Да
Использование указателей C2 : Нет
Коррекция смещения при чтении : 6
Способность читать области Lead-in и Lead-out : Нет
Заполнение пропущенных сэмплов тишиной : Да
Удаление блоков с тишиной в начале и конце : Нет
При вычислениях CRC использовались нулевые сэмплы : Да
Интерфейс : Встроенный Win32-интерфейс для Win NT/2000
Выходной формат : Внутренние WAV-операции
Формат сэмплов : 44.100 Гц; 16 бит; стерео
TOC извлечённого CD
Трек | Старт | Длительность | Начальный сектор | Конечный сектор
---------------------------------------------------------------------
1 | 0:00.30 | 2:08.27 | 30 | 9656
2 | 2:08.57 | 3:53.00 | 9657 | 27131
3 | 6:01.57 | 3:46.73 | 27132 | 44154
4 | 9:48.55 | 2:59.04 | 44155 | 57583
 
86f6e0f38665bd180832bae35704e0e0507571a9(1996) Jingle Bells — The London Studio Orchestra & Cathedral City Project (Christmas, Instrumental, Chorus) [FLAC (image+.cue), lossless] (1996) Jingle Bells — The London Studio Orchestra & Cathedral City Project (Christmas, Instrumental, Chorus) [FLAC (image+.cue), lossless] " />

Аплоадер: Админ, дата: 29-12-2011, 22:52, торрент скачан: 359 раз

Понравилась раздача? Посмотрите эти:
  • (2013) Би-2 / Би-2 & Prague Metropolitan Symphonic Orchestra (Rock) [MP3, 3 ...
  • Вивальди / Vivaldi
  • (2001, сборник) MALANDO & HIS ORCHESTRA - The Best Of Tango Music (Танг ...
  • (2009, сборник) VA / 101 Strings Orchestra - The Best of Christmas (Christ ...
  • (1985) The London Symphony Orchestra / Plays The Music Of Jethro Tull (Clas ...
  • (1938-1942) Glenn Miller and His Orchestra - The Complete Glenn Miller / 13 ...
  • (1995) Royal Philarmonic Orchestra / Rock Classics (Orchestral) [MP3, 320/C ...
  • (1999, 3 CD) The Beatles Symphonic Orchestra / Beatles Symphonic Collection ...
  • (2012) The Royal Philharmonic Orchestra / The Titanic Requiem (Classical) [ ...
  • (2012) United Passion / Made With Passion ( Euro House, Synth-pop) [MP3, ~2 ...
  • (2012) Submotion Orchestra / Fragments (Dubstep, Electronic, Nu Jazz, Soul) ...
  • (2012) London Philharmonic Orchestra & Andrew Skeet / The Greatest Video Ga ...
  • (2008 , Сборник) VA / Christmas Hits: 80 Festive Hits (4-CD) (Christmas) [M ...
  • (2005) LONDON SYMPHONY ORCHESTRA - Beethoven Classic (Classic) [DVD Audio 5 ...
  • (2008) VANESSA MAE / Star Mark Greatest Hits [2CD] (Neoclassical / Violin / ...
  • (1994) The Mask / Маска — by Jim Carry (Джим Кэрри), Randy Edelman (Рэнди Э ...
  • (1995) The Gary Tesca Orchestra / Amor amor - The Julio Iglesias Story (Pop ...
  • (2012) Howard Shore / The Hobbit: An Unexpected Journey - Original Motion ...
  • (2012, сборник) VA / Christmas Piano Masters (Instrumental, Piano, Holiday) ...
  • (2010) Marco Kasiske / Rammstein Orchestra (Orchestra) [mp3, 203-222/VBR]
  • (1987) W.A.Mozart / Моцарт - Requiem / Реквием (Karajan / Караян) (Классик ...
  • (1997) London Philharmonic Orchestra - Kashmir-Symphonic Led Zeppelin (Clas ...
  • (2005) Antonio Vivaldi / Konzerte (классика) [mp3, 256 kbps/CBR]
  • (1994, 5CDs Box set) VA / A Voyage Through Classical Music (Classical) [FLA ...
  • (2007, сборник) Azzurra Orchestra / Saxophone Hits (3CD Box) (Jazz-Pop, Smo ...
  • Информация
    Посетители, находящиеся в группе Гости, не могут оставлять комментарии к данной публикации.