вход на сайт

Имя пользователя :
Пароль :

Восстановление пароля Регистрация
(2010) Арнау — Махаббат жыры / Песни о любви (Pop) [WavPack (image+.cue), [NL+0802] lossless] [MA 1778/10]
Рейтинг:
(голосов: 1)



[img]{THEME}/images/logopost.png[/img]



Альбом: Махаббат жыры / Песни о любви
Исполнитель: Арнау (Нуржан Керменбаев, Салтанат Бакаева)
Год выпуска: 2010
Страна: Казахстан
Продолжительность: 29:31 минут
Жанр: Pop (поп)

Дистрибьютор:
Лейбл: Laser Master [MA 1778/10]
Язык исполнения: казахский
Качество: lossless (рип стандарта NL+0802)
Кодек: WavPack
Формат: image+.cue
Обложки: полностью включены, PNG 48b optimized 2 x 1200dpi, 2 x reduced + матрица

Описание: Нуржан Керменбаев родом из Карагандинской области, родился в шахтерской семье в городе Сатпаев. Закончил Жезказганский музыкальный колледж по специальности ДХО — Дирижерско-хоровое отделение в 2009 году. В 2006 году выиграл национальный телевизионный проект. В 2009 году представлял Казахстан на международном конкурсе популярных молодых исполнителей в Латвии.
Салтанат Бакаева родилась в Алматинской области. С пяти лет поступила в среднюю специализированную музыкальную школа им. Куляш Байсеитовой по классу: домбра и общее фортепиано. В 2005 году поступила в Казахскую национальную академию искусств им. Т. Жургенева по специальности актриса музыкального театра и кино. Работала в ТЮЗе имени Габита Мусрепова. На данный момент является актрисой Академического Драматического театра им. М. Ауэзова.

Треклист:01. Аңсарым сен...(4:00)
02. Қызғанам...(4:15)
03. Махаббат жыры...(3:54)
04. Сенен басқа...(3:31)
05. Япыр-ай...(2:59)
06. Жалындаған махаббат...(3:20)
07. Дудар-ай...(3:45)
08. Егіз лебіз...(3:48)
"EAC log" ▼TextExact Audio Copy V0.99 prebeta 5 from 4. May 2009

Отчёт EAC об извлечении, выполненном 22. июля 2010, 15:07

Unknown Artist / Unknown Title

Дисковод: ASUS DRW-1814BL Adapter: 1 ID: 0

Режим чтения : Достоверность
Использование точного потока : Да
Отключение кэша аудио : Да
Использование указателей C2 : Нет

Коррекция смещения при чтении : 6
Способность читать области Lead-in и Lead-out : Нет
Заполнение пропущенных сэмплов тишиной : Да
Удаление блоков с тишиной в начале и конце : Нет
При вычислениях CRC использовались нулевые сэмплы : Да
Интерфейс : Встроенный Win32-интерфейс для Win NT/2000

Выходной формат : Внутренние WAV-операции
Формат сэмплов : 44.100 Гц; 16 бит; стерео


TOC извлечённого CD

Трек | Старт | Длительность | Начальный сектор | Конечный сектор
---------------------------------------------------------------------
1 | 0:00.00 | 4:00.08 | 0 | 18007
2 | 4:00.08 | 4:15.18 | 18008 | 37150
3 | 8:15.26 | 3:53.45 | 37151 | 54670
4 | 12:08.71 | 3:30.63 | 54671 | 70483
5 | 15:39.59 | 2:59.13 | 70484 | 83921
6 | 18:38.72 | 3:20.26 | 83922 | 98947 &
401b88ffdc60d2e1493f55f2c267f1e839ebba34(2010) Арнау — Махаббат жыры / Песни о любви (Pop) [WavPack (image+.cue), [NL+0802] lossless] [MA 1778/10] (2010) Арнау — Махаббат жыры / Песни о любви (Pop) [WavPack (image+.cue), [NL+0802] lossless] [MA 1778/10] " />

Аплоадер: Админ, дата: 22-07-2010, 23:34, торрент скачан: 359 раз

Понравилась раздача? Посмотрите эти:
  • (2005) Дильназ Ахмадиева — Золотой (Pop), (WV, image+.cue) [NL+0802] lossle ...
  • (1989, 1991, 1992, 1993) Nirvana — 4 альбома (Grunge) [WavPack (image+.cue) ...
  • (дискография, 1983-2008) MADONNA (pop / dance) [WavPack (image+.cue) lossle ...
  • (2009) НОЧНЫЕ СНАЙПЕРЫ — Живаго в Лужниках (русский рок) [WAVPack (lossless ...
  • (2007) СТАС МИХАЙЛОВ - Лучшие песни (Шансон) [APE (image + .cue) lossless]
  • (2000) Tic Tac Toe / Ist der Ruf erst ruiniert... (Rap,Hip-hop) [Lossless, ...
  • (2010) ST1M / Октябрь (Rap) [APE(image+.cue), lossless]
  • (2006) Батырхан Шукенов/ Отан Ана (Pop) [FLAC (image+.cue) lossless]
  • (2010) Хамиль и Змей (Каста) / ХЗ (Rap) [APE(image+.cue), lossless]
  • (2010) Noize MC / Последний Альбом (Rap) [APE(image+.cue), lossless]
  • (2004) Старинные вальсы / Old Waltzes (Waltz, Soviet) [WavPack (image+.cue) ...
  • (2010) ДиДюЛя / Аромат (flamenco, instrumental, folk) [APE (image + .cue), ...
  • (1985) BABYS GANG / Challenger (Pop,Italo Disco) [APE(image+.cue)lossless] ...
  • (2010) ДаБац (Da Budz) / Вершки Да Корешки(Rap) [APE (image+.cue), lossless ...
  • (2011) АлисА / 20.12 (Русский Рок) [WavPack (image+.cue), lossless]
  • (2005) плюм-Бум / Чистая правда (Funk, Reggae, Pop-Punk) [APE(image+.cue), ...
  • (2011) АукцЫон / Юла (Rock) [APE (image+.cue), lossless]
  • (2003) THE BLACK EYED PEAS / Elephunk (RnB) [Ape (image+.cue), lossless]
  • (2009) Челси / Точка возврата (Pop) [APE (image+.cue), lossless]
  • (2009, Cборник) Madonna / Greatest Hits [CD1 + CD2] (Pop) [APE (image+.cue) ...
  • (2010) Арнау (Нуржан Керменбаев, Салтанат Бакаева) / Махаббат жыры / Песни ...
  • (2011) N1NT3NDO / N1NT3NDO (Rap) [APE (image+.сue), lossless]
  • (2009) Kamazz (3NT) / Завязал (Hip-Hop) [APE (image+.cue) lossless]
  • (2000) Парк Горького (Gorky Park) / The Best (Glam Metal/Hard Rock) [FLAC ...
  • (2008) Студия 80 / Придуманный Мир (Pop) [FLAC (image+.cue), lossless]
  • Информация
    Посетители, находящиеся в группе Гости, не могут оставлять комментарии к данной публикации.