вход на сайт

Имя пользователя :
Пароль :

Восстановление пароля Регистрация
(2006) УЛЫТАУ / ULYTAU - Жумыр-Кылыш / Jumyr-Kylysh (ethnic / folk metal / instrumental) [lossless FLAC (image + .cue)]
Рейтинг:
(голосов: 1)



[img]{THEME}/images/logopost.png[/img]



Исполнитель: Улытау / Ulytau
Альбом: Жумыр-Кылыш
Год выпуска: 2006
Жанр: ethnic / folk metal / instrumental
Формат: FLAC (image + .cue)
Битрейт: lossless
Продолжительность: 00:39:49

Tрэклист:
01. Адай (03:10)
02. Winter (The Four Seasons) (03:57)
03. Курiшiлер (03:29)
04. Жумыр-Кылыш (05:04)
05. Toccata and Fugue (04:16)
06. Ата Толгауы (04:11)
07. Turkish March (04:11)
08. Япыр-Ай (народная песня) (03:50)
09. Терiзкакпай (04:03)
10. Кокiл (03:38)

Log EAC:▼Exact Audio Copy V0.99 prebeta 4 from 23. January 2008

Отчёт EAC об извлечении, выполненном 4. мая 2009, 12:24

Ulytau / Jumyr-Kylysh

Дисковод: Optiarc DVD RW AD-7191S Adapter: 1ID: 0

Режим чтения : Достоверность
Использование точного потока : Да
Отключение кэша аудио: Да
Использование указателей C2: Нет

Коррекция смещения при чтении : 6
Способность читать области Lead-in и Lead-out : Нет
Заполнение пропущенных сэмплов тишиной: Да
Удаление блоков с тишиной в начале и конце: Нет
При вычислениях CRC использовались нулевые сэмплы : Да
Интерфейс : Встроенный Win32-интерфейс для Win NT/2000

Выходной формат: Пользовательский кодировщик
Выбранный битрейт: 768 kBit/s
Качество : Высокий
Добавление ID3-тэга: Нет
Утилита сжатия : d:РrogramsExact Audio CopyFLACFLAC.EXE
Дополнительные параметры : -6 -V -T "ARTIST=%a" -T "TITLE=%t" -T "ALBUM=%g" -T "DATE=%y" -T "TRACKNUMBER=%n" -T "GENRE=%m" -T "COMMENT=%e" %s -o %d


TOC извлечённого CD

Трек | Старт| Длительность | Начальный сектор | Конечный сектор
---------------------------------------------------------------------
1|0:00.00 |3:12.68 | 0|14467
2|3:12.68 |3:56.08 | 14468|32175
3|7:09.01 |3:29.23 | 32176|47873
4| 10:38.24 |5:04.08 | 47874|70681
5| 15:42.32 |4:15.60 | 70682|&
c05414ad0f8a7de4444243e3a529376994c8604e(2006) УЛЫТАУ / ULYTAU - Жумыр-Кылыш / Jumyr-Kylysh (ethnic / folk metal / instrumental) [lossless FLAC (image + .cue)] (2006) УЛЫТАУ / ULYTAU - Жумыр-Кылыш / Jumyr-Kylysh (ethnic / folk metal / instrumental) [lossless FLAC (image + .cue)] " />

Аплоадер: Админ, дата: 26-05-2009, 02:38, торрент скачан: 359 раз

Понравилась раздача? Посмотрите эти:
  • (1993) Coverdale & Page / Coverdale & Page (EMI Holland)(Hard Rock) [FLAC ( ...
  • (2000) a-ha / Minor Earth | Major Sky (Alternative Rock, Synth-pop ) [FLAC ...
  • (2010) Schiller / Breathless (Electronic) [FLAC (image+.cue), lossless]
  • (2010) Мафик / Ангел (Шансон) [FLAC(image+cue), lossless]
  • (1999) Ennio Morricone / Romantic Collection (Classical) [FLAC (image+.cue) ...
  • (2008) ST / Сто из Ста (Rap) [FLAC(track+.cue), lossless]
  • (1988) James Last / Romantic Love Songs (Instrumental) [FLAC (image+.cue) l ...
  • (2006) Батырхан Шукенов/ Отан Ана (Pop) [FLAC (image+.cue) lossless]
  • (2006) Tokio / puls 200 (Alternative Rock / Pop Rock) [FLAC (image+.cue) lo ...
  • (2010) ДиДюЛя / Аромат (flamenco, instrumental, folk) [APE (image + .cue), ...
  • (2010) БИ-2 / О чём говорят мужчины (Pop-Rock) [FLAC (image + .cue), lossle ...
  • (2011) Легенды Про / Желтый Дом (Rap) [FLAC (tracks+.cue), Lossless]
  • (2011) Within Temptation / The Unforgiving (Symphonic Gothic Metal) [FLAC ( ...
  • (Дискография 2006 - 2011) Human Zoo (Melodic Hard Rock) [FLAC (image+.cue), ...
  • (2004) Genesis / Platinum Collection (Art Rock) [FLAC (image+.cue), lossles ...
  • (2011) Waltari / Covers All (The 25th Anniversary Album) (Alternative Metal ...
  • (1997) Jazz Cafe / Simple Pleasures (Jazz, instrumental) [FLAC (image+.сue ...
  • (2007) Хор Турецкого / Великая Музыка (2CD) (Choir, Folk, Aсapella) [FLAC ( ...
  • (Дискография, 2006-2011) Светлана Копылова (Православная песня) [FLAC (imag ...
  • (1986) Dark Angel / Darkness Descends (Thrash Metal) [FLAC (image+.cue), lo ...
  • (2011) Ассаи / ОМ (Rap) [FLAC (tracks+.cue), lossless]
  • (2000) Парк Горького (Gorky Park) / The Best (Glam Metal/Hard Rock) [FLAC ...
  • (2004) Ex-Сектор Газа / Огненный рай (Punk-Rock) [FLAC (image+.cue), lossle ...
  • (2012) Ария / Live In Studio (Heavy Metal) [FLAC (image+.сue), lossless]
  • (2008) Студия 80 / Придуманный Мир (Pop) [FLAC (image+.cue), lossless]
  • Информация
    Посетители, находящиеся в группе Гости, не могут оставлять комментарии к данной публикации.