вход на сайт

Имя пользователя :
Пароль :

Восстановление пароля Регистрация
(2008) The Magic Of Nomads / Bulbul Zaman (folk-ethnic / smooth jazz / instrumental) [FLAC (image + .cue), lossless]
Рейтинг:
(голосов: 1)



[img]{THEME}/images/logopost.png[/img]



Исполнитель: The Magic Of Nomads
Альбом: Bulbul Zaman
Тип альбома: Студийный (LP)
Год выпуска: 2008
Жанр: ethnic / folk / smooth jazz / instrumental
Формат: FLAC (image+.cue)
Битрейт: lossless
Продолжительность: 01:10:49

Tреклист:
01. Bulbul Zaman (4:05)
02. Eligay (5:56)
03. Dedim Ai Au (5:16)
04. Gakku (3:53)
05. Erke Sylkym (2:40)
06. Kus Kaitaru (4:05)
07. Akhau Kerim (4:48)
08. Ak Sisa (3:18)
09. Kulan (3:17)
10. Eske Alamyn (5:15)
11. Aday (2:18)
12. Ansau (4:38)
13. Zhusan-Kyz (5:48)
14. Zhez Kiik (3:14)
15. Yapuray (6:25)
16. Aitys (4:11)
17. Balbyrayn (1:43)

Отчет EAC: ▼TextExact Audio Copy V0.99 prebeta 4 from 23. January 2008

EAC extraction logfile from 27. April 2009, 7:18

The Magic Of Nomads / Bulbul Zaman

Used drive : Optiarc DVD RW AD-5200S Adapter: 2 ID: 0

Read mode : Secure
Utilize accurate stream : Yes
Defeat audio cache : Yes
Make use of C2 pointers : No

Read offset correction : 48
Overread into Lead-In and Lead-Out : No
Fill up missing offset samples with silence : Yes
Delete leading and trailing silent blocks : No
Null samples used in CRC calculations : Yes
Used interface : Installed external ASPI interface

Used output format : User Defined Encoder
Selected bitrate : 192 kBit/s
Quality : High
Add ID3 tag : No
Command line compressor : C:Program FilesExact Audio CopyFlac lac.exe
Additional command line options : -8 -V -T "ARTIST=%a" -T "TITLE=%t" -T "ALBUM=%g" -T "DATE=%y" -T "TRACKNUMBER=%n" -T "GENRE=%m" -T "COMMENT=EAC FLAC -8" %s


TOC of the extracted CD

Track | Start | Length | Start sector | End sector
---------------------------------------------------------
1 | 0:00.00 | 4:05.32 | 0 | 18406
2 | 4:05.32 | 5:56.02 | 18407 | 45108
3 | 10:01.34 | 5:15.40 | 45109 | 68773
4 | 15:16.74 | 3:52.70 | 68774 | 86243
5 | 19:09.69 | 2:39.69 | 86244 | 98237
6 | 21:49.63 | 4:05.36 | 98238 | 116648
7 | 25:55.24 | 4:48.01 | 116649 | 138249
8 | 30:43.25 | 3:18.18 | 138250 | 153117
9 | 34:01.43 | 3:17.04 | 153118 | 167896
10 | 37:18.47 | 5:14.52 | 167897 | 191498
11 | 42:33.24 | 2:17.65 | 191499 | 201838
d345e2d06f95fba1e7cc973c84463002cb7b577a(2008) The Magic Of Nomads / Bulbul Zaman (folk-ethnic / smooth jazz / instrumental) [FLAC (image + .cue), lossless] (2008) The Magic Of Nomads / Bulbul Zaman (folk-ethnic / smooth jazz / instrumental) [FLAC (image + .cue), lossless] " />

Аплоадер: Админ, дата: 1-08-2010, 06:48, торрент скачан: 359 раз

Понравилась раздача? Посмотрите эти:
  • (1996) George Michael / Older (1st Press Japan) (Electronic, Pop/Rock) [FLA ...
  • (2013) Buddy Guy / Rhythm & Blues (2CD) (Blues) [FLAC (image+.cue), Lossles ...
  • (2013) Paul McCartney / New (Deluxe Edition) (Rock) [FLAC (image,+.cue), lo ...
  • (2012) The Bryan Ferry Orchestra / The Jazz Age (Jazz) [FLAC (image+.cue), ...
  • (2012) Lazlo / Lazlo (Electro Swing, Nu Jazz, Electronic) [FLAC (tracks+.cu ...
  • (2010) Zaz / Zaz (Nu jazz, Chanson, Soul) [FLAC (tracks+.cue), lossless]
  • (2011) Adele / 21 (Jazz, Lounge, Easy Listening) [FLAC (tracks + .cue), los ...
  • (2011) The Prodigy / Worlds On Fire (Big Beat, Rave) [FLAC (image+.cue), lo ...
  • (2002) PPK (ППК) / ReLoad. Russian Trance (Trance) [FLAC (tracks+cue), loss ...
  • (2011) Linkin Park / LP Underground 11 (Alternative Rock) [FLAC (Image+cue) ...
  • (Дискография, 1988-2011) Kingdom Come (Hard&Heavy,Glam Metal) [FLAC (image+ ...
  • (2012) Katie Melua / Secret Symphony (Jazz Pop, Vocal Jazz) [FLAC (tracks+. ...
  • (2011) B.B. King / Icon (Blues) [FLAC (tracks+.cue), lossless]
  • (2012, Сборник) VA / Saxophone Golden Best (Jazz, Smooth Jazz) [FLAC (track ...
  • (2008, Сборник) VA / Relax Piano - Yesterday - Trai Tim Mua Thu - Vol.7 (Ne ...
  • (2011) Linkin Park / Iridescent (Alternative Rock) [FLAC(image+.cue), lossl ...
  • (2011) Rammstein / Mein Land (Neue Deutsche Harte, Industrial, Tanz-Metal) ...
  • (2011) Ленинград / Хна (Rock) [FLAC (tracks+.cue), lossless]
  • (2009) Mystica / Second Dive (Trance, Ambient & Downtempo, Chill Out) [FLAC ...
  • (2012) Anneke van Giersbergen / Everything Is Changing (Alternative Rock/Fe ...
  • (2011) Volumes / Via (Progressive Metalcore/Math Metal) [FLAC (image+.cue), ...
  • (2012) Peter White / Here We Go (Smooth Jazz) [FLAC (tracks+.cue), lossles ...
  • (2012) Soulfly / Enslaved [Deluxe Edition] (Groove Metal/Thrash Metal) [FLA ...
  • (2012) Game Over / For Humanity (Thrash Metal) [FLAC (image+.cue), lossless ...
  • (2011) Phinehas / Thegodmachine (Metalcore) [FLAC (tracks+.cue), lossless]
  • Информация
    Посетители, находящиеся в группе Гости, не могут оставлять комментарии к данной публикации.