вход на сайт

Имя пользователя :
Пароль :

Восстановление пароля Регистрация
(2006) Батырхан Шукенов/ Отан Ана (Pop) [FLAC (image+.cue) lossless]
Рейтинг:
(голосов: 1)



[img]{THEME}/images/logopost.png[/img]



Исполнитель: Батырхан Шукенов
Альбом: Отан ана (Родная земля)
Тип альбома: Студийный
Год выпуска: 2006
Жанр: Pop
Формат: FLAC(image+.cue+log)
Битрейт: lossless
Продолжительность: 00:44:17

Tреклист:
1. Отан Ана
2. Бақыт Құшағында
3. Қайран Қөңіл-Ай
4. Гүл Алматы
5. Япырай
6. Үйықта Бөпем
7. Күндер-Ай
8. Бал Сезім
9. Әсем Дүние
10. Аялаған Арман-Ай
11. Сағым Дүние (Bonus)

Отчёт EAC
▼Exact Audio Copy V0.99 prebeta 5 from 4. May 2009

Отчёт EAC об извлечении, выполненном 7. февраля 2010, 9:56

Batyr / Otan Ana

Дисковод: MATSHITADVD-RAM UJ-832S Adapter: 0ID: 1

Режим чтения : Достоверность
Использование точного потока : Да
Отключение кэша аудио: Да
Использование указателей C2: Нет

Коррекция смещения при чтении : 102
Способность читать области Lead-in и Lead-out : Нет
Заполнение пропущенных сэмплов тишиной: Да
Удаление блоков с тишиной в начале и конце: Нет
При вычислениях CRC использовались нулевые сэмплы : Да
Интерфейс : Встроенный Win32-интерфейс для Win NT/2000

Выходной формат : Внутренние WAV-операции
Формат сэмплов: 44.100 Гц; 16 бит; стерео


TOC извлечённого CD

Трек | Старт| Длительность | Начальный сектор | Конечный сектор
---------------------------------------------------------------------
1|0:00.00 |4:43.46 | 0|21270
2|4:43.46 |5:04.51 | 21271|44121
3|9:48.22 |4:10.22 | 44122|62893
4| 13:58.44 |3:19.36 | 62894|77854
5| 17:18.05 |5:05.06 | 77855| 100735
6| 22:23.11 |4:16.46 |100736| 119981
7| 26:39.57 |3:50.11 |119982| 137242
1f93ce5eff76a808804b6f475181c8d5dfd98968(2006) Батырхан Шукенов/ Отан Ана (Pop) [FLAC (image+.cue) lossless] (2006) Батырхан Шукенов/ Отан Ана (Pop) [FLAC (image+.cue) lossless] " />

Аплоадер: Админ, дата: 16-05-2010, 10:30, торрент скачан: 359 раз

Понравилась раздача? Посмотрите эти:
  • (2000) Lenny Kravitz / Greatest Hits (Rock, Funk) [FLAC (image+.cue), lossl ...
  • (2002) a-ha / Lifelines (Alternative Rock, Synth-pop ) [FLAC (image + .cue ...
  • (2012) Григорий Лепс / Полный вперёд (Шансон) [FLAC (image+.cue), Lossless ...
  • (2010) Мафик / Ангел (Шансон) [FLAC(image+cue), lossless]
  • (1994) Joy / Grand Collection (EuroDisco) [FLAC (image+.cue) lossless]
  • (2010) Батыр / Осторожно, милая девушка! (Pop) [FLAC (image+ cue)]
  • (2006) Tokio / puls 200 (Alternative Rock / Pop Rock) [FLAC (image+.cue) lo ...
  • (1985) BABYS GANG / Challenger (Pop,Italo Disco) [APE(image+.cue)lossless] ...
  • (2011) Within Temptation / The Unforgiving (Symphonic Gothic Metal) [FLAC ( ...
  • (2004) Genesis / Platinum Collection (Art Rock) [FLAC (image+.cue), lossles ...
  • (2011) Blues Cousins / KGB Blues (Blues Rock) [FLAC (image+.cue), lossless] ...
  • (2012) Serebro / Mama Lover (Монолит) (Pop) [FLAC (image+.cue), lossless]
  • (2003) THE BLACK EYED PEAS / Elephunk (RnB) [Ape (image+.cue), lossless]
  • (2006) УЛЫТАУ / ULYTAU - Жумыр-Кылыш / Jumyr-Kylysh (ethnic / folk metal / ...
  • ( 2001) Воскресение / Звездная коллекция (Rock) [FLAC (image+.cue) lossless ...
  • (2001) Катя Огонёк / Дорожный роман (Шансон) [FLAC (image+.cue)]
  • (2009) Челси / Точка возврата (Pop) [APE (image+.cue), lossless]
  • (2010) Lara Fabian / The Best of (2CD Limited Edition) (Pop) [Flac(image+.c ...
  • (2006) Би-2 / Лучшие песни (Rock) [FLAC (image+.cue), lossless]
  • (1995) Юрий Шатунов / Ты помнишь... (Pop) [FLAC(image+.cue), lossless]
  • (1988) Fausto Papetti / Grand Collection (POP, Jazz) [FLAC (image+.cue), lo ...
  • (1995) Yaki-Da / Pride (Pop, Eurodance) [FLAC (image+.сue), lossless]
  • (2000) Парк Горького (Gorky Park) / The Best (Glam Metal/Hard Rock) [FLAC ...
  • (2004) Ex-Сектор Газа / Огненный рай (Punk-Rock) [FLAC (image+.cue), lossle ...
  • (2008) Студия 80 / Придуманный Мир (Pop) [FLAC (image+.cue), lossless]
  • Информация
    Посетители, находящиеся в группе Гости, не могут оставлять комментарии к данной публикации.