вход на сайт

Имя пользователя :
Пароль :

Восстановление пароля Регистрация
(2005) Дильназ Ахмадиева — Золотой (Pop), (WV, image+.cue) [NL+0802] lossless
Рейтинг:
(голосов: 1)



[img]{THEME}/images/logopost.png[/img]



Дильназ Ахмадиева — Золотой

Жанр: Pop / Поп
Год выпуска диска: 2005
Лэйбл: NOX Kazakhstan
Дистрибьютор:
Язык исполнения: русский, английский

Качество: lossless
Формат: WV (image+.cue), [NL+0802]
Продолжительность: 39:31.627
Обложки: полностью включены (+матрица), 2.4 -- 3.9 Mpx, 300 dpi (600 dpi twopassed, PNG)
Чекеры: TAU spec/freq (все треки), EAC CD spectrum, auCDtect Log
Бонус: два клипа, "All by myself" (04:05) и "Золотой, Золотой" (04:15), в MKV x264 (сжатый из тупого-тупого пиратского mpg, звук отсутствует)

Трэклист:
01. Золотой, Золотой....(4:17)
02. Белые Ночи..........(4:46)
03. Chinese Guy.........(4:08)
04. Не Получается.......(3:46)
05. Люби И Помни Меня...(4:08)
06. Осенний Вальс.......(3:38)
07. Я Разбиваю Любовь...(3:12)
08. Между Нами Зима.....(4:08)
09. Lonely..............(4:04)
10. Эхо Любви...........(3:23)


Отчёт EAC:

Exact Audio Copy V0.99 prebeta 4 from 23. January 2008

Отчёт EAC об извлечении, выполненном 6. апреля 2009, 23:11

Дильназ Ахмадиева / Золотой

Дисковод: ASUSDRW-1814BLT Adapter: 0ID: 0

Режим чтения : Достоверность
Использование точного потока : Да
Отключение кэша аудио: Да
Использование указателей C2: Нет

Комбинированное смещение чтения/записи: 6
Способность читать области Lead-in и Lead-out : Нет
Заполнение пропущенных сэмплов тишиной: Да
Удаление блоков с тишиной в начале и конце: Нет
При вычислениях CRC использовались нулевые сэмплы : Да
Интерфейс : Установленный внешний ASPI-интерфейс

Выходной формат : Внутренние WAV-операции
Формат сэмплов: 44.100 Гц; 16 бит; стерео


TOC извлечённого CD

Трек | Старт| Длительность | Начальный сектор | Конечный сектор
---------------------------------------------------------------------
1|0:00.00 |4:16.57 | 0|19256
2|4:16.57 |4:45.52 | 19257|40683
3|9:02.34 |4:08.27 | 40684|59310
4| 13:10.61 |3:46.31 | 59311|76291
5| 16:57.17 |4:08.25 | 76292|94916
6| 21:05.42 |3:38.16 
d7a95e0f4f3ecb46826b56215e5e13ba44e47798(2005) Дильназ Ахмадиева — Золотой (Pop), (WV, image+.cue) [NL+0802] lossless (2005) Дильназ Ахмадиева — Золотой (Pop), (WV, image+.cue) [NL+0802] lossless " />

Аплоадер: Админ, дата: 7-04-2009, 23:49, торрент скачан: 359 раз

Понравилась раздача? Посмотрите эти:
  • (2012) Григорий Лепс / Полный вперёд (Шансон) [FLAC (image+.cue), Lossless ...
  • (2009) НОЧНЫЕ СНАЙПЕРЫ — Живаго в Лужниках (русский рок) [WAVPack (lossless ...
  • (2009) СЕРГЕЙ НАГОВИЦЫН / The Best Of - 2009 (Шансон) [FLAC (image+.cue) lo ...
  • (2000) Tic Tac Toe / Ist der Ruf erst ruiniert... (Rap,Hip-hop) [Lossless, ...
  • (2008) НоГГано / Первый (Rap) [APE(image+cue), lossless]
  • (1994) Joy / Grand Collection (EuroDisco) [FLAC (image+.cue) lossless]
  • (2010) Ласковый Май (Солист Юра Шатунов) / Оригинальные записи 1988-1989 (2 ...
  • (2010) Баста / Баста 3 (Rap) [APE (image+.cue), lossless]
  • (2010) ST1M / Октябрь (Rap) [APE(image+.cue), lossless]
  • (2004) Старинные вальсы / Old Waltzes (Waltz, Soviet) [WavPack (image+.cue) ...
  • (2010) ДиДюЛя / Аромат (flamenco, instrumental, folk) [APE (image + .cue), ...
  • (1984) Boney M / Ten Thousand Lightyears (Disco) [APE (image+.cue) lossles ...
  • (1985) BABYS GANG / Challenger (Pop,Italo Disco) [APE(image+.cue)lossless] ...
  • (2010) ДаБац (Da Budz) / Вершки Да Корешки(Rap) [APE (image+.cue), lossless ...
  • (2011) Within Temptation / The Unforgiving (Symphonic Gothic Metal) [FLAC ( ...
  • (2009) Rihanna / Rated R (R`n`B) [APE (image+.cue)]
  • (2008) БандЭрос / Коламбия Пикчерз Не Представляет. Новое Издание(R&B) [APE ...
  • (2009) Guf / Дома (Rap) [APE (image+.cue)]
  • (2010) Арнау — Махаббат жыры / Песни о любви (Pop) [WavPack (image+.cue), [ ...
  • (1993) Любовь Успенская / Любимый (шансон) [APE (image+.cue), lossless]
  • (2009) Челси / Точка возврата (Pop) [APE (image+.cue), lossless]
  • (2009, Cборник) Madonna / Greatest Hits [CD1 + CD2] (Pop) [APE (image+.cue) ...
  • (Дискография, 2005-2008) Ёлка (R&B, Reggae, Pop) [APE (image+.cue); FLAC (i ...
  • (2004) Ex-Сектор Газа / Огненный рай (Punk-Rock) [FLAC (image+.cue), lossle ...
  • (2008) Студия 80 / Придуманный Мир (Pop) [FLAC (image+.cue), lossless]
  • Информация
    Посетители, находящиеся в группе Гости, не могут оставлять комментарии к данной публикации.