вход на сайт

Имя пользователя :
Пароль :

Восстановление пароля Регистрация
(2002) Urker / Уркер / Made In Kazakhstan (Pop, Ethno) [FLAC (image+.cue), Lossless]
Рейтинг:
(голосов: 1)



[img]{THEME}/images/logopost.png[/img]



Исполнитель: Urker / Уркер
Страна: Казахстан
Альбом: Made In Kazakhstan
Тип альбома: Студийный
Год выпуска: 2002
Жанр: Pop, Ethno
Страна (Издатель, Каталожный номер): Казахстан,
Аудиокодек: FLAC (*.flac)
Тип рипа: image+.cue
Битрейт: lossless
Продолжительность: 00:37:08

Tреклист:
01. Konyr (5:11)
02. Tugan Elim (4:18)
03. Arular (4:58)
04. Toi Duman (4:36)
05. Ayaulym (4:20)
06. Ansau (4:40)
07. Kalkamai (4:06)
08. Zhanym (4:58)

Лог создания рипа ▼TextExact Audio Copy V0.99 prebeta 5 from 4. May 2009

EAC extraction logfile from 13. August 2010, 21:55

Unknown Artist / Unknown Title

Used drive : HL-DT-STDVDRAM GT10N Adapter: 1 ID: 0

Read mode : Secure
Utilize accurate stream : Yes
Defeat audio cache : Yes
Make use of C2 pointers : No

Read offset correction : 102
Overread into Lead-In and Lead-Out : No
Fill up missing offset samples with silence : Yes
Delete leading and trailing silent blocks : No
Null samples used in CRC calculations : Yes
Used interface : Native Win32 interface for Win NT & 2000

Used output format : User Defined Encoder
Selected bitrate : 128 kBit/s
Quality : High
Add ID3 tag : No
Command line compressor : C:Program FilesExact Audio CopyFlacflac.exe
Additional command line options : -8 -V %s


TOC of the extracted CD

Track | Start | Length | Start sector | End sector
---------------------------------------------------------
1 | 0:00.00 | 5:11.32 | 0 | 23356
2 | 5:11.32 | 4:18.08 | 23357 | 42714
3 | 9:29.40 | 4:58.11 | 42715 | 65075
4 | 14:27.51 | 4:36.13 | 65076 | 85788
5 | 19:03.64 | 4:20.08 | 85789 | 105296
6 | 23:23.72 | 4:40.09 | 105297 | 126305
7 | 28:04.06 | 4:06.10 | 126306 | 144765
8 | 32:10.16 | 4:58.07 | 144766 | 167122


Range status and errors

Selected range

Filename C:UsersfeurerDesktopНовая папкаURKER - Made In Kazakhstan.wav

Peak level 100.0 %
Range quality 99.9 %
Test CRC 7B407BEA
Copy CRC 7B407BEA
Copy OK

No errors occurred


AccurateRip summary

Track 1 accurately ripped (confidence 1) [6A680C84]
Track 2 accurately ripped (confidence 1) [10D3CC11]
Track 3 accurately ripped (confidence 1) [FA5C7B17]
Track 4 accurately ripped (confidence 1) [AEDB4F32]
Track 5 accurate
e7d341bd214866c403f7629451dd8b0936999bce(2002) Urker / Уркер / Made In Kazakhstan (Pop, Ethno) [FLAC (image+.cue), Lossless] (2002) Urker / Уркер / Made In Kazakhstan (Pop, Ethno) [FLAC (image+.cue), Lossless] " />

Аплоадер: Админ, дата: 26-02-2013, 22:25, торрент скачан: 359 раз

Понравилась раздача? Посмотрите эти:
  • (2013) Depeche Mode - Heaven (CD Maxi-Single) (Synthpop) [FLAC (image+.cue) ...
  • ( Soundtrack,1999) VA - American Beauty Original Motion Picture Soundtrack ...
  • (Дискография) 1981-2009 Depeche Mode (Electronic, Synthpop) [FLAC (tracks+ ...
  • (1989) Kaoma / Lambada (lambada / latin / ethnic) [FLAC (image+.cue), lossl ...
  • (2010) Ассаи / Лифт (Rap) [FLAC(image+.cue), lossless]
  • Slayer - 12 CD (Original Japanese Editions) (Thrash Metal) [FLAC(image+.cue ...
  • (1968) Ten Years After / Undead (Rock / Blues / Blues Rock) [Flac (tracks+. ...
  • (2003) Пикник / Говорит и показывает (Полная история) (Rock) [WavPack (imag ...
  • (Дискография1983 - 1985) Eddie Jobson (ProgRock, Electronic) [APE (image+.c ...
  • (Дискография, 1985 - 2009) Sandra (Pop) [APE (image+.cue), FLAC (image+.cue ...
  • (1984) Van Halen / 1984 (Japanese 1984 SHM-CD Edition) (Hard & Heavy) [APE ...
  • (2011) Linkin Park / Iridescent (Alternative Rock) [FLAC(image+.cue), lossl ...
  • (2011) JORN / Live In Black (Heavy/Progressive Metal ) [FLAC (image+.cue), ...
  • (2011) Rammstein / Mein Land (Neue Deutsche Harte, Industrial, Tanz-Metal) ...
  • (2011) Adriano Celentano / Facciamo Finta Che Sia Vero (POP) [FLAC (image+. ...
  • (2011) Metallica / Beyond Magnetic (Thrash Metal) [FLAC (image+.cue), lossl ...
  • (Дискография, 2002 - 2012) Rodrigo y Gabriela (Acoustic, Flamenco, Classica ...
  • (2011) Sylvan / Sceneries (Neo-Progressive) [FLAC (image+.cue), lossless]
  • (2009) Exivious (Ex. Cynic) / Exivious (Progressive Metal/Death Metal) [FLA ...
  • (2010) Punish My Heaven / First Punishment (Melodic Death Metal, Metalcore) ...
  • Информация
    Посетители, находящиеся в группе Гости, не могут оставлять комментарии к данной публикации.