вход на сайт

Имя пользователя :
Пароль :

Восстановление пароля Регистрация
(2010) АСЫЛБЕК ЕНСЕПОВ / Ұлы жібек жолы — Великий шёлковый путь. Переиздание (Instrumental, Folklore, Kazakh Classical) [FLAC (image+.cue), lossless] [MA-204/06]
Рейтинг:
(голосов: 1)



[img]{THEME}/images/logopost.png[/img]



Исполнитель: Асылбек Енсепов
Альбом: Ұлы жібек жолы / Великий шёлковый путь. Переиздание
Тип альбома: студийный
Год выпуска: 2003 (переиздание 2010, пруф)
Страна: Казахстан
Лейбл: / LASERMASTER[MA-204/06]
Жанр: инструментальная музыка (Instrumental, Folklore, Kazakh Classical)
Формат: FLAC (image+.cue)
Битрейт: lossless
Обложки: полностью включены, 600DPI (1200x2 resized) PNG, lossless
Продолжительность: 41:28.853 (109758432 samples)

Описание: Музыка, очень качественно и не без юмора подобрана и аранжирована, а также исполнена... со вкусом Асылбеком Енсеповым - домбристом-виртуозом.
Родился в 1980 г. в г. Актобе. Асылбек – лауреат фестивалей и конкурсов (Турция, Франция).
Имеет гран-при международного фестиваля эстрадной и фольклорной музыки “Иссык-Куль”, 1998 г., награды Международного конкурса им. Курмангазы, 1998 г. , казахстанского республиканского фестиваля творческой молодежи “Шабыт”, 1998 г. В 1998 г. Асылбек у была присуждена премия Союза молодежи Казахстана.
В 1999 году появляется на профессиональной сцене и тут же завоевывает победу в номинации “Открытие года” ежегодного телевизионного фестиваля “Песня года - Золотой диск”.
В 2004 году стал обладателем казахстанской премии “Тарлан”, а в этом (2010) году - “Дарын”.

Tреклист:01. Балбырауын...(3:06)
02. Yesterday...(2:18)
03. Сұлтан...(3:43)
04. Арнау...(2:34)
05. Қыз Қуу...(3:24)
06. Детство...(2:49)
07. Amor de mis amores...(3:59)
08. Құралай...(3:39)
09. Take five...(3:27)
10. Ұлы жібек жолы...(4:31)
11. Нұр шашу...(4:15)
12. Толғау...(3:43)
EAC log ▼TextExact Audio Copy V0.99 prebeta 5 from 4. May 2009

Отчёт EAC об извлечении, выполненном 24. декабря 2010, 11:30

Unknown Artist / Unknown Title

Дисковод: ATAPI iHAS124 Y Adapter: 3 ID: 0

Режим чтения : Достоверность
Использование точного потока : Да
Отключение кэша аудио : Да
Использование указателей C2 : Нет

Комбинированное смещение чтения/записи : 6
Способность читать области Lead-in и Lead-out : Да
Заполнение пропущенных сэмплов тишиной : Да
Удаление блоков с тишиной в начале и конце : Нет
При вычислениях CRC использовались нулевые сэмплы : Да
Интерфейс : Встроенный Win32-интерфейс для Win NT/2000

Выходной формат : Внутренние WAV-операции
Формат сэмплов : 44.100 Гц; 16 бит; стерео


TOC извлечённого CD

Трек | Старт | Длительность | Начальный сектор | Конечный сектор
---------------------------------------------------------------------
1 | 0:00.00 | 3:05.58 | 0 | 13932
2 | 3:05.58 | 2:17.44 | 13933 | 24251
3 | 5:23.27 | 3:43.14 | 24252 | 40990
4 | 9:06.41 | 2:34.18 | 40991 | 52558
5 | 11:40.59 | 3:23.43 | 52559 | 67826
6 | 15:04.27 | 2:49.17 &nbs
631806d0dc7d7ed31ae01723b996ab2f451778df(2010) АСЫЛБЕК ЕНСЕПОВ / Ұлы жібек жолы — Великий шёлковый путь. Переиздание (Instrumental, Folklore, Kazakh Classical) [FLAC (image+.cue), lossless] [MA-204/06] (2010) АСЫЛБЕК ЕНСЕПОВ / Ұлы жібек жолы — Великий шёлковый путь. Переиздание (Instrumental, Folklore, Kazakh Classical) [FLAC (image+.cue), lossless] [MA-204/06] " />

Аплоадер: Админ, дата: 25-12-2010, 04:36, торрент скачан: 359 раз

Понравилась раздача? Посмотрите эти:
  • (2000) Lenny Kravitz / Greatest Hits (Rock, Funk) [FLAC (image+.cue), lossl ...
  • (2002) a-ha / Lifelines (Alternative Rock, Synth-pop ) [FLAC (image + .cue ...
  • (2012) Григорий Лепс / Полный вперёд (Шансон) [FLAC (image+.cue), Lossless ...
  • (2001, сборник) VA - Одинокий пастух Vol.3 - Галерея инструментальной музык ...
  • (2010) Мафик / Ангел (Шансон) [FLAC(image+cue), lossless]
  • (2004) VA / Инструментальная музыка - Лучшие мировые хиты (Instrumental) [A ...
  • (1999) Ennio Morricone / Romantic Collection (Classical) [FLAC (image+.cue) ...
  • (2009) Игорь Крутой и Дмитрий Хворостовский / Дежавю (Opera / Classical / I ...
  • (1999) Paul Mauriat / Diamond Collections (Instrumental,Easy Listening) [FL ...
  • (1988) James Last / Romantic Love Songs (Instrumental) [FLAC (image+.cue) l ...
  • (2010) Ласковый Май (Солист Юра Шатунов) / Оригинальные записи 1988-1989 (2 ...
  • (2006) Батырхан Шукенов/ Отан Ана (Pop) [FLAC (image+.cue) lossless]
  • (2010) ДиДюЛя / Аромат (flamenco, instrumental, folk) [APE (image + .cue), ...
  • (2011) Within Temptation / The Unforgiving (Symphonic Gothic Metal) [FLAC ( ...
  • (2011) Blues Cousins / KGB Blues (Blues Rock) [FLAC (image+.cue), lossless] ...
  • (1997) Jazz Cafe / Simple Pleasures (Jazz, instrumental) [FLAC (image+.сue ...
  • (2003) Асылбек Енсепов Улы Жибек Жолы (Инструментальная) [MP3 320CBR]
  • (2004) Асылбек Енсепов - Адай (Instrumental) [MP3, 128 kbps]
  • (2006) УЛЫТАУ / ULYTAU - Жумыр-Кылыш / Jumyr-Kylysh (ethnic / folk metal / ...
  • (2010) Lara Fabian / The Best of (2CD Limited Edition) (Pop) [Flac(image+.c ...
  • (2010) Асылбек Енсепов / Ұлы жібек жолы / Великий шёлковый путь (Instrument ...
  • (1995) Yaki-Da / Pride (Pop, Eurodance) [FLAC (image+.сue), lossless]
  • (2000) Парк Горького (Gorky Park) / The Best (Glam Metal/Hard Rock) [FLAC ...
  • (2004) Ex-Сектор Газа / Огненный рай (Punk-Rock) [FLAC (image+.cue), lossle ...
  • (2008) Студия 80 / Придуманный Мир (Pop) [FLAC (image+.cue), lossless]
  • Информация
    Посетители, находящиеся в группе Гости, не могут оставлять комментарии к данной публикации.