вход на сайт

Имя пользователя :
Пароль :

Восстановление пароля Регистрация
(1998) П.И. ЧАЙКОВСКИЙ Щелкунчик (Classic) [lossless, Flac (image)+eaclog]
Рейтинг:
(голосов: 1)



[img]{THEME}/images/logopost.png[/img]



Балет "Щелкунчик"- П.И. Чайковский


Жанр: Orchestral
Год выпуска диска: 1998
Производитель диска: Германия
Аудио кодек: FLAC
Тип рипа: image+.cue
Битрейт аудио: lossless
Продолжительность: 81 мин.
Исполнители: Оркестр Кировского театра оперы и балета.
Дирижер: Валерий Гергиев.
Доп. информация: Образ диска в распакованном состоянии имеет размер: 857 555 708 байт.
При записи на CD, необходимо приобрести диск соответствующего объёма.
Сканы диска, обложки и буклета прилагаются.

Треклист
▼01. "Overture"
02. "The Christmas Tree"
03. "March"
04. "Galop and Dance of the Parents"
05. "The Presents of Drosselmeyer"
06. "Grandfather Dance"
07. "Clara and the Nutcracker"
08. "The Nutcracker battles against the Army of the Mouse King - ..."
09. "In the Christmas Tree"
10. "Scene and Waltz of the Snowflakes"
11. "The Magic Castle on the Mountain of Sweets"
12. "Clara and Prince Charming"
13. "Character Dances Divertissement - Chocolate (Spanish Dance)"
14. "Character Dances Divertissement - Coffe (Arabian Dance)"
15. "Character Dances Divertissement - Tea (Chinese Dance)"
16. "Character Dances Divertissement - Trйpak (Russian Dance)"
17. "Character Dances Divertissement - Dance of the Reed Pipes"
18. "Character Dances Divertissement - Polichinelle (The Clown)"
19. "Waltz of the Flowers"
20. "Pas de deux - Intrada"
21. "Pas de deux - Variation 1 (Tarantella)"
22. "Pas de deux - Variation 2 (Dance of the Sugar-Plum Fairy)"
23. "Pas de deux - Coda"
24. "Closing Waltz - Grand Finale"

Отчет ЕАС
▼Exact Audio Copy V0.99 prebeta 4 from 23. January 2008

EAC extraction logfile from 8. June 2008, 11:40

Tchaikovsky (Valery Gergiev - Kirov Orchestra) / The Nutcracker, Op. 71

Used drive : Optiarc DVD RW AD-7200S Adapter: 1 ID: 0

Read mode : Secure
Utilize accurate stream : Yes
Defeat audio cache : Yes
Make use of C2 pointers : No

Read offset correction : 48
Overread into Lead-In and Lead-Out : No
Fill up missing offset samples with silence : Yes
Delete leading and trailing silent blocks : No
Null samples used in CRC calculations : Yes
Used interface : Installed external ASPI interface

Used output format : Internal WAV Routines
Sample format : 44.100 Hz; 16 Bit; Stereo

TOC of the extracted CD

Track | Start | Length | Start sector | End sector
---------------------------------------------------------
1 | 0:00.32 | 3:14.33 | 32 | 14614
2 | 3:14.65 | 3:44.70 | 14615 | 31484
3 | 6:59.60 | 2:13.45 | 31485 | 41504
4 | 9:13.30 | 2:13.30 | 41505 | 51509
5 | 11:26.60 | 5:01.70 | 51510 | 74154
6 | 16:28.55 | 5:30.22 | 74155 | 98926
7 | 21:59.02 | 6:23.43 | 98927 | 127694
8 | 28:22.45 | 3:20.35 | 127695 | 142729
9 | 31:43.05 | 3:32.10 | 142730 | 158639
10 | 35:15.15 | 6:05.12 | 158640 | 186026
11 | 41:20.27 | 3:23.55 | 186027 | 201306
12 | 44:44.07 | 4:51.35 | 201307 | 223166
13 | 49:35.42 | 1:08.73 | 223167 | 228339
14 | 50:44.40 | 3:11.12 | 228340 | 242676
15 | 53:55.52 | 1:07.70 | 242677 | 247771
16 | 55:03.47 | 1:00.45 | 247772 | 252316
17 | 56:04.17 | 2:13.60 | 252317 | 262351
18 | 58:18.02 | 2:24.15 | 262352 | 273166
19 | 60:42.17 | 6:24.15 | 273167 | 301981
20 | 67:06.32 | 5:00.70 | 301982 | 324551
21 | 72:07.27 | 0:36.15 | 324552 | 327266
22 | 72:43.42 | 2:05.40 | 327267 | 336681
23 | 74:49.07 | 1:14.03 | 336682 | 342234
24 | 76:03.10 | 4:58.22 | 342235 | 364606

Range status and errors

Selected range

Filename D:МузыкаРЕЛИЗNutcracker-GergievTchaikovsky (Valery Gergiev - Kirov Orchestra) - The Nutcracker, Op. 71.wav

Peak level 100.0 %
Range quality 99.9 %
Copy CRC 3FB25919
Copy OK

No errors occurred

End of status report

Содержание: Акт I
Балет начинается краткой “Миниатюрной Увертюрой”, которая также открывает и Сюиту. Музыка устанавливает волшебное настроение использованием верхних регистраторов оркестра исключительно. Занавес открывается, чтобы показать
c7cb7aa8e4b854adfac0823b9e2e5e09180312cc(1998) П.И. ЧАЙКОВСКИЙ Щелкунчик (Classic) [lossless, Flac (image)+eaclog] (1998) П.И. ЧАЙКОВСКИЙ Щелкунчик (Classic) [lossless, Flac (image)+eaclog] " />

Аплоадер: Админ, дата: 7-01-2009, 10:43, торрент скачан: 359 раз

Понравилась раздача? Посмотрите эти:
  • (2013) Мумий Тролль / SOS Матросу - 2013, (Rock) [FLAC (image+.cue), lossle ...
  • (2009, сборник) VA / Christmas Chill Out Lounge (Chillout) [FLAC (image + . ...
  • (2008) Капа и Картель / Гламурным (Rap) [Ape(image+ cue), lossless]
  • (1989) Kaoma / Lambada (lambada / latin / ethnic) [FLAC (image+.cue), lossl ...
  • (2010) Сергей Трофимов (Трофим) / Всё не важно (Шансон) [FLAC(image+.cue), ...
  • (2010) Ассаи / Лифт (Rap) [FLAC(image+.cue), lossless]
  • (2010) Нюша / Выбирать чудо (Pop) [FLAC(tracks+.cue), lossless]
  • (2007) Константин Никольский / Иллюзии (Rock) [APE (image + .cue), lossless ...
  • (2011) Mylene Farmer/ Bleu Noir (CDS + CDM) (Pop) [APE (image+.cue) lossles ...
  • (2011) Scar Symmetry / The Unseen Empire (Melodic Death Metal) [FLAC (image ...
  • (2008) Юрий Наумов / Рок как будто Блюз (Blues) [FLAC (Image+.cue), lossles ...
  • (2012) Kreator / Phantom Antichrist (Thrash Metal) [FLAC (image+.cue), loss ...
  • (Дискография, 1987-1999) Obliveon (Technical Thrash Metal) [FLAC (image+.cu ...
  • (2011 15CD Box Set Digitally Remaster) Rush - Sectors (Rock, Progressive R ...
  • (2012) Dan Balan / All The Hits (Orange Exclusiv) (Pop, Dance) [FLAC (image ...
  • (1993-2005) П.И.Чайковский / Концерты 1-3; Симфонии 3, 5; Итальянское капри ...
  • (2011) Yanni / Truth Of Touch (New Age) [FLAC (image+ .cue),lossless]
  • (2011) Стас Михайлов / Только ты (Шансон) [Flac(image+.cue)Lossless]
  • (2011) Сурганова & Оркестр / Увидимся скоро (Rock) [FLAC (image+.cue), loss ...
  • (2011) Metallica / Beyond Magnetic (Thrash Metal) [FLAC (image+.cue), lossl ...
  • (2012) Adrenaline Mob / Omerta (Heavy Metal/Progressive/Nu-Metal) [FLAC (im ...
  • (2012) Crippled Black Phoenix / (Mankind) The Crafty Ape (Alternative/Indie ...
  • (2012) Fox / 2012 (Melodic Hard Rock) [FLAC (image +.cue), lossless]
  • (2010) Татьяна Буланова / Романсы (Pop) [FLAC (image+.cue), lossless]
  • (2011) Lou Reed & Metallica / Lulu (Heavy Metal, Hard Rock) [FLAC (image+.c ...
  • Информация
    Посетители, находящиеся в группе Гости, не могут оставлять комментарии к данной публикации.