вход на сайт

Имя пользователя :
Пароль :

Восстановление пароля Регистрация
(2008, 5xCD Box Set) VA / Ultimate Classical Guitar - The Essential Masterpieces (Classical music) [FLAC (image+.сue), lossless]
Рейтинг:
(голосов: 1)



[img]{THEME}/images/logopost.png[/img]



Ultimate Classical Guitar - The Essential Masterpieces

Исполнитель: Various Artists
Бокс Сет: Ultimate Classical Guitar: - The Essential Masterpieces
Год выпуска:2008
Жанр:Classical music
Страна (Издатель, Каталожный номер): EU (DECCA) - 00289 478 0217
Аудиокодек: FLAC
Тип рипа: image+.cue
Битрейт: lossless
Продолжительность: 05:17:06


CD #1 - Ultimate Classical Guitar ▼

Продолжительность: 01:05:33

Tреклист:
[06:11] 01. Alexandre Lagoya - Rodrigo: Concierto de Aranjuez - i. Allegro con spirito
[09:22] 02. Alexandre Lagoya - Rodrigo: Concierto de Aranjuez - ii. Adagio
[05:16] 03. Alexandre Lagoya - Rodrigo: Concierto de Aranjuez - iii. Allegro gentile
[04:43] 04. Alexandre Lagoya - Rodrigo: Fantasia para un gentilhombre - i. Villano y Ricercare
[09:35] 05. Alexandre Lagoya - Rodrigo: Fantasia para un gentilhombre - ii. Espanoleta e Fanfare
[02:02] 06. Alexandre Lagoya - Rodrigo: Fantasia para un gentilhombre - iii. Danza de las hachas
[04:55] 07. Alexandre Lagoya - Rodrigo: Fantasia para un gentilhombre - iv. Canario
[08:03] 08. Catherine Michel - Rodrigo: Concierto Serenata - i. Estudiantina
[09:00] 09. Catherine Michel - Rodrigo: Concierto Serenata - ii. Intermezzo con aria
[06:24] 10. Catherine Michel - Rodrigo: Concierto Serenata - iii. Sarao


Лог создания рипа ▼TextExact Audio Copy V0.99 prebeta 4 from 23. January 2008
EAC 抓取日志文件从11. 二月 2009, 19:09
Various / Ultimate Classical Guitar CD1
使用驱动器 :PIONEER DVD-RW DVR-112 Adapter: 3 ID: 0
读取模式 : 保护
使用精确流 : 是
废除音频缓冲 : 是
使用 C2 指针 : 否
读取偏移校正 : 48
读取 Lead-In 和 Lead-Out : 是
用静音填充抓取中丢失偏移的采样 : 是
去除首尾静音块 : 否
在 CRC 计算中使用了空样本 : 是
已用接口 : Win NT 及 2000 本地 Win32 接口
所用输出格式 : 用户定义的编码器
已选比特率 : 1024 kBit/s
质量 : 高
添加 ID3 标签 : 否
命令行压缩器 : C:Program FilesExact Audio CopyFLACFLAC.EXE
附加命令行参数 : -6 -V -T "ARTIST=%a" -T "TITLE=%t" -T "ALBUM=%g" -T "DATE=%y" -T "TRACKNUMBER=%n" -T "GENRE=%m" -T "COMMENT=%e" %s -o %d
被抓轨 CD 的 TOC
音轨 | 开始 | 长度 | 起始扇区 | 结尾扇区
--------------------------------------------------
1 | 0:00.32 | 6:15.00 | 32 | 28156
2 | 6:15.32 | 9:23.00 | 28157 | 70381
3 | 15:38.32 | 5:25.00 | 70382 | 94756
4 | 21:03.32 | 4:45.00 | 94757 | 116131
5 | 25:48.32 | 9:35.00 | 116132 | 159256
6 | 35:23.32 | 2:02.00 | 159257 | 168406
7 | 37:25.32 | 5:00.00 | 168407 | 190906
8 | 42:25.32 | 8:08.00 | 190907 | 227506
9 | 50:33.32 | 9:02.00 | 227507 | 268156
10 | 59:35.32 | 6:25.00 | 268157 | 297031
范围状态及错误
已选择范围
文件名 F:EmuleNew ReleaseUltimate Classical GuitarVarious - Ultimate Classical Guitar CD1.wav
可疑位置 1:06:00
峰值电平 97.8 %
范围质量 99.9 %
复制 CRC 0CB5A656
复制结束
出现错误
AccurateRip 概要
音轨 1 无法精确校验 (确认 2) [A800AE9B], AccurateRip 返回 [D089850E]
音轨 2 无法精确校验 (确认 2) [799B8B99], AccurateRip 返回 [AC2CB8A2]
音轨 3 无法精确校验 (确认 2) [18D3F180], AccurateRip 返回 [8B238C26]
音轨 4 无法精确校验 (确认 2) [DAC02754], AccurateRip 返回 [400A6119]
音轨 5 无法精确校验 (确认 2) [E7F42FC9], AccurateRip 返回 [E397CF3C]
音轨 6 无法精确校验 (确认 2) [D2F999C9], AccurateRip 返回 [CF3F2784]
音轨 7 无法精确校验 (确认 2) [F88FBA7A], AccurateRip 返回 [F67A902E]
音轨 8 无法精确校验 (确认 2) [EAD33841], AccurateRip 返回 [06C03681]
音轨 9 无法精确校验 (确认 2) [34EF35B0], AccurateRip 返回 [C61D3F95]
音轨 10 无法精确校验 (确认 2) [A257B19D], AccurateRip 返回 [3FE4E00D]
没有音轨被精确验证
状态报告结尾

Содержимое индексной карты .cue ▼TextREM GENRE Classical
REM DATE 2008
REM DISCID 850F780A
REM COMMENT "ExactAudioCopy v0.99pb4"
PERFORMER "Various"
TITLE "Ultimate Classical Guitar CD1"
FILE "VA - Ultimate Classical Guitar - CD1 [Flac].flac" WAVE
TRACK 01 AUDIO
TITLE "Rodrigo: Concierto de Aranjuez - i. Allegro con spirito"
PERFORMER "Alexandre Lagoya"
INDEX 00 00:00:00
INDEX 01 00:00:32
TRACK 02 AUDIO
TITLE "Rodrigo: Concierto de Aranjuez - ii. Adagio"
PERFORMER "Alexandre Lagoya"
INDEX 00 06:11:34
12eb91b176ccf1d1dcdaad969fdc0e82aab5d52d(2008, 5xCD Box Set) VA / Ultimate Classical Guitar - The Essential Masterpieces (Classical music) [FLAC (image+.сue), lossless] (2008, 5xCD Box Set) VA / Ultimate Classical Guitar - The Essential Masterpieces (Classical music) [FLAC (image+.сue), lossless] " />

Аплоадер: Админ, дата: 27-07-2012, 10:39, торрент скачан: 359 раз

Понравилась раздача? Посмотрите эти:
  • (2006) The Beatles / Love (Rock) [24bit - 96kHz] [FLAC(image+.cue), lossles ...
  • (2012) The Doors - L.A. Woman(1971)[lp] [24bit - 96kHz] [FLAC(image+.cue), ...
  • (2013) Buddy Guy / Rhythm & Blues (2CD) (Blues) [FLAC (image+.cue), Lossles ...
  • (2013) Paul McCartney / New (Deluxe Edition) (Rock) [FLAC (image,+.cue), lo ...
  • (2013) Linkin Park & Steve Aoki / A Light That Never Comes (Electronic Rock ...
  • (2013) Richard Clayderman / Romantique (Easy Listening, Instrumental, Class ...
  • (2010) Zaz / Zaz (Nu jazz, Chanson, Soul) [FLAC (tracks+.cue), lossless]
  • (2011) B.B. King / Icon (Blues) [FLAC (tracks+.cue), lossless]
  • (2001-2003, сборник) VA / Acoustic Café (4xCD) (Classical, New Age) [FLAC ( ...
  • (2011) Ludovico Einaudi / Islands: Essential Einaudi (Classical, Contempora ...
  • (2008, Сборник) VA / Relax Piano - Yesterday - Trai Tim Mua Thu - Vol.7 (Ne ...
  • [LP] (2011) Adele / 21 (2 CD) (XL Recordings LP; DMR) (R&B, Soul, Gospel, B ...
  • (2012) Terry Oldfield feat. Mike Oldfield / Journey Into Space (NewAge) [FL ...
  • (2011) Mistabishi / Trip (Drum & Bass, Breakbeat) [FLAC (tracks+.cue), loss ...
  • (2012) Madonna / Superstar (Pop) [FLAC (image+.cue), lossless]
  • (2010) Георгий Свиридов / "Метель" №11 Великие композиторы (Classical) [FLA ...
  • (2011) Linkin Park / Iridescent (Alternative Rock) [FLAC(image+.cue), lossl ...
  • (1989) Galway - Scimone - I Solisti Veneti / Vivaldi - 6 Concertos (Classic ...
  • (2011) Gandharva / Lord of the Universe (New Age, Classical, Erhu) [FLAC (t ...
  • (2009, сборник) VA / Классика Навсегда (Classical) [FLAC (tracks+.cue), los ...
  • (2011) Rammstein / Mein Land (Neue Deutsche Harte, Industrial, Tanz-Metal) ...
  • (Дискография, 2002 - 2012) Rodrigo y Gabriela (Acoustic, Flamenco, Classica ...
  • (2012) Les Friction / Les Friction (Alt. Rock/Neo-Classical/Orchestral) [FL ...
  • (2011) SeeS / The enD (Progressive/Math Metal) [FLAC (tracks+.cue), lossles ...
  • (2011) Volumes / Via (Progressive Metalcore/Math Metal) [FLAC (image+.cue), ...
  • Информация
    Посетители, находящиеся в группе Гости, не могут оставлять комментарии к данной публикации.