вход на сайт

Имя пользователя :
Пароль :

Восстановление пароля Регистрация
(2006) Великие Композиторы / Жизнь и Творчество - Бетховен (Classical) [Flac(tracks+.cue)lossless]
Рейтинг:
(голосов: 1)



[img]{THEME}/images/logopost.png[/img]



Исполнитель: Великие Композиторы
Альбом: Жизнь и Творчество - Бетховен
Страна: Россия
Тип альбома: Студийный
Год выпуска: 2006
Жанр: Classical
Формат: Flac(tracks+.cue) [level 8]
Битрейт: lossless
Продолжительность: 00:49:49

Tреклист:
01.К Элизе[03:18]
02.Adagio sostenuto[06:04]
03.Allegretto[02:11]
04.Presto agitato[07:08]
05.Скрипичный романс до мажор соч. 40[06:42]
06.Скрипичный романс фа мажор соч. 50[08:22]
07.Увертюра "Кориолан" соч. 62[07:40]
08.Увертюра "Эгмонт" соч. 84[08:22]

Лог создания рипа ▼Exact Audio Copy V0.99 prebeta 5 from 4. May 2009

EAC extraction logfile from 2. August 2011, 17:16

Unknown Artist / Unknown Title

Used drive: HL-DT-STDVDRAM GSA-T20N Adapter: 1ID: 0

Read mode : Secure
Utilize accurate stream : Yes
Defeat audio cache: Yes
Make use of C2 pointers : No

Read offset correction: 667
Overread into Lead-In and Lead-Out: No
Fill up missing offset samples with silence : Yes
Delete leading and trailing silent blocks : No
Null samples used in CRC calculations : Yes
Used interface: Native Win32 interface for Win NT & 2000
Gap handling: Appended to previous track

Used output format : Internal WAV Routines
Sample format: 44.100 Hz; 16 Bit; Stereo


TOC of the extracted CD

Track | Start|Length| Start sector | End sector
---------------------------------------------------------
1|0:00.32 |3:18.30 |32|14911
2|3:18.62 |6:04.00 | 14912|42211
3|9:22.62 |2:11.00 | 42212|52036
4| 11:33.62 |7:08.38 | 52037|84174
5| 18:42.25 |6:42.12 | 84175| 114336
6| 25:24.37 |8:22.73 |114337| 152059
7| 33:47.35 |7:40.17 |152060| 186576
8| 41:27.52 |8:22.05 |186577| 224231


Track1

Filename D:lossless1. Unknown Artist – Track01.wav

P
949a907ecfe1dcd099208017f964657f84405243(2006) Великие Композиторы / Жизнь и Творчество - Бетховен (Classical) [Flac(tracks+.cue)lossless] (2006) Великие Композиторы / Жизнь и Творчество - Бетховен (Classical) [Flac(tracks+.cue)lossless] " />

Аплоадер: Админ, дата: 7-08-2011, 23:33, торрент скачан: 359 раз

Понравилась раздача? Посмотрите эти:
  • (2008) ANDREA BOCELLI / Incanto (classical) [FLAC (tracks+.cue) lossless]
  • (2009) SHAKIRA / She Wolf (US Edition) (Pop) [Flac (tracks+.cue), lossless] ...
  • (2010)Scorpions/Sting In The Tail [FLAC (tracks+cue), lossless]
  • (2008) Pink / Funhouse (Pop) [FLAC (tracks) lossless]
  • (Дискография) GORILLAZ (Trip-Hop) [FLAC (tracks + .cue) lossless]
  • (2010) Баста и Гуф / Баста / Гуф (Rap) [FLAC (tracks+.cue) lossless]
  • (2010) Michael Jackson - Michael (Pop) [FLAC, (tracks+.cue), lossless]
  • (2010) Daft Punk / Tron: Legacy (Score) [FLAC (tracks+.cue) lossless]
  • (2006) Великие Композиторы / Жизнь и Творчество - Шопен (Classical) [Flac(t ...
  • (2006) DMX / Year Of The Dog...Again (EU) (Rap) [FLAC (tracks)]
  • (2001) Bloodthorn / Under the Reign of Terror (Black/Death Metal) [Flac(tra ...
  • (2009) Koan / When The Silence Is Speaking (Ambient, Downtempo, Chillout) [ ...
  • (2010) Ne-Yo / Libra Scale (Japanese Edition) (RnB) [FLAC (tracks+.cue) los ...
  • (2010) Rihanna / Loud (R&B) [FLAC (tracks+.cue), lossless]
  • (2003) DJ Zinc / Faster (DnB, Breaks) [ FLAC (tracks+.cue), lossless]
  • (2006) The Rasmus / Shot (Single) (Alternative Rock) [FLAC (tracks+.cue), l ...
  • (1993-2005) П.И.Чайковский / Концерты 1-3; Симфонии 3, 5; Итальянское капри ...
  • (1989) Galway - Scimone - I Solisti Veneti / Vivaldi - 6 Concertos (Classic ...
  • (2011) Electric Universe / Higher Modes (Psytrance, Full On) [FLAC (tracks+ ...
  • (2012) Оргия Праведников / Шитрок (Rock/Progressive Rock) [FLAC (tracks+cue ...
  • Информация
    Посетители, находящиеся в группе Гости, не могут оставлять комментарии к данной публикации.