вход на сайт

Имя пользователя :
Пароль :

Восстановление пароля Регистрация
(2006) Великие Композиторы / Жизнь и Творчество - Шопен (Classical) [Flac(tracks+.cue)lossless]
Рейтинг:
(голосов: 1)



[img]{THEME}/images/logopost.png[/img]



Исполнитель: Великие Композиторы
Альбом: Жизнь и Творчество - Шопен
Страна: Россия
Тип альбома: Студийный
Год выпуска: 2006
Жанр: Классическая музыка
Формат: Flac(tracks+.cue)
Битрейт: lossless
Продолжительность: 00:51:43

Tреклист:
01.Ноктюрн ми-бемоль мажор соч. 9 N2.(04:40)
02.Ноктюрн фа мажор соч. 15 N1.(04:04)
03.Ноктюрн фа-диез мажор соч. 15 N2.(03:22)
04.Ноктюрн соль минор соч. 15 N3.(04:55)
05.Ноктюрн ре-бемоль мажор соч. 27 N2.(05:42)
06.Прелюдия соль мажор соч. 28 N3.(01:06)
07.Прелюдия ля мажор соч. 28 N7.(00:51)
08.Прелюдия ре-бемоль мажор соч. 28 N15.(04:33)
09.Прелюдия фа минор соч. 28 N18.(01:03)
10.Grande Valse Brillante соч. 18.(05:24)
11.Вальс ре-бемоль мажор соч. 64 N1.(02:10)
12.Вальс до-диез минор соч. 64 N2.(03:41)
13.Вальс ля-бемоль мажор соч. 69 N1.(03:30)
14.Вальс фа минор соч. 70 N2.(03:15)
15.Вальс N4.(03:20)

Отчет EAC
▼Exact Audio Copy V0.99 prebeta 5 from 4. May 2009

EAC extraction logfile from 24. July 2011, 1:41

Chopin / Великие композиторы

Used drive: HL-DT-STDVDRAM GSA-T20N Adapter: 1ID: 0

Read mode : Secure
Utilize accurate stream : Yes
Defeat audio cache: Yes
Make use of C2 pointers : No

Read offset correction: 667
Overread into Lead-In and Lead-Out: No
Fill up missing offset samples with silence : Yes
Delete leading and trailing silent blocks : No
Null samples used in CRC calculations : Yes
Used interface: Native Win32 interface for Win NT & 2000
Gap handling: Not detected, thus appended to previous track

Used output format : Internal WAV Routines
Sample format: 44.100 Hz; 16 Bit; Stereo


TOC of the extracted CD

Track | Start|Length| Start sector | End sector
---------------------------------------------------------
1|0:00.32 |4:40.73 |32|21104
2|4:41.30 |4:04.00 | 21105|39404
3|8:45.30 |3:22.55 | 39405|54609
4| 12:08.10 |4:55.70 | 54610|76804
5| 17:04.05 |5:42.02 | 76805| 102456
6| 22:46.07 |1:06.35 |102457| 107441
7| 23:52.42 |0:51.63 |&n
f23769e2e1771855e1ab09c2aca6190a403387a1(2006) Великие Композиторы / Жизнь и Творчество - Шопен (Classical) [Flac(tracks+.cue)lossless] (2006) Великие Композиторы / Жизнь и Творчество - Шопен (Classical) [Flac(tracks+.cue)lossless] " />

Аплоадер: Админ, дата: 24-07-2011, 21:10, торрент скачан: 359 раз

Понравилась раздача? Посмотрите эти:
  • (2009, сборник) VA / 100 Лучших мелодий против стресса (Классическая музыка ...
  • (2006) Дик де Рейтер / Йога и звук (Музыка Йоги/Нада-йога/Meditative) [WMA, ...
  • (2008) ANDREA BOCELLI / Incanto (classical) [FLAC (tracks+.cue) lossless]
  • (2009) SHAKIRA / She Wolf (US Edition) (Pop) [Flac (tracks+.cue), lossless] ...
  • (2010)Scorpions/Sting In The Tail [FLAC (tracks+cue), lossless]
  • (2008) Pink / Funhouse (Pop) [FLAC (tracks) lossless]
  • (2010) Начало / Inception (by Hans Zimmer) (Score) [FLAC (tracks+.cue) loss ...
  • (2010) Баста и Гуф / Баста / Гуф (Rap) [FLAC (tracks+.cue) lossless]
  • (2010) Michael Jackson - Michael (Pop) [FLAC, (tracks+.cue), lossless]
  • (2010) Unkle - Where Did The Night Fall, (Electronic, Trip-Hop), [FLAC (tra ...
  • (2006) Великие Композиторы / Жизнь и Творчество - Бетховен (Classical) [Fla ...
  • (2006) DMX / Year Of The Dog...Again (EU) (Rap) [FLAC (tracks)]
  • (2001) Bloodthorn / Under the Reign of Terror (Black/Death Metal) [Flac(tra ...
  • (2010) Ne-Yo / Libra Scale (Japanese Edition) (RnB) [FLAC (tracks+.cue) los ...
  • (2010) Rihanna / Loud (R&B) [FLAC (tracks+.cue), lossless]
  • (2003) DJ Zinc / Faster (DnB, Breaks) [ FLAC (tracks+.cue), lossless]
  • (2007, сборник) Вольфганг Амадей Моцарт - Концерты (classical) [mp3 320CBR] ...
  • (2006-2009) VA / Великие композиторы. Жизнь и творчество 1-25СD (Classical) ...
  • (2006-2009) VA / Великие композиторы. Жизнь и творчество 26-50СD (Classical ...
  • (2009, сборник) VA / 77 самых красивых мелодий (Классическая музыка) [MP3, ...
  • (2003) Сергей Васильевич Рахманинов / Избранное (Классическая музыка) [MP3 ...
  • (2010) VA / Паганини / Сонаты и каприсы (Classical) [MP3, ~205-243/VBR]
  • (1993-2005) П.И.Чайковский / Концерты 1-3; Симфонии 3, 5; Итальянское капри ...
  • (1989) Galway - Scimone - I Solisti Veneti / Vivaldi - 6 Concertos (Classic ...
  • (2011) Electric Universe / Higher Modes (Psytrance, Full On) [FLAC (tracks+ ...
  • Информация
    Посетители, находящиеся в группе Гости, не могут оставлять комментарии к данной публикации.