вход на сайт

Имя пользователя :
Пароль :

Восстановление пароля Регистрация
(1995-1998) Edward Grieg / Peer Gynt - Lyric Pieces - Orchestral Pieces | Edward Grieg, Jean Sibelius / Splendeurs du Nord (Classical) [FLAC (tracks+.cue), lossless]
Рейтинг:
(голосов: 1)



[img]{THEME}/images/logopost.png[/img]



Исполнитель: Edward Grieg, Jean Sibelius
Жанр: Classical
Формат: FLAC (tracks+.cue)
Битрейт: lossless
Продолжительность: 03:48:01

Splendeurs du Nord (Северное великолепие)
"Splendeurs du Nord" ▼
Тип альбома: Студийный
Год выпуска: 1995
Формат: FLAC (tracks+.cue)
Битрейт: lossless
Продолжительность: 02:37:17

Tреклист:
CD1:

EDWARD GRIEG - PEER GYNT
Suite no. 1 op.46
1. I. Atmosphere matinale. Allegretto pastorale [4:00]
2. II. La mort dAase. Andante doloroso [4:48]
3. III.La danse dAnitra. Tempo di Mazurka [3:47]
4. IV. Dans le Hall du roi de la montagne. Alla marcia e mollo marcato [2:08]
Suite no.2 op.55
5. I. Le Rapt de la fiancee. Allegro furioso - Andante doloroso [4:56]
6. II. Danse arabe. Allegretto vivace [4:41]
7. III.Le retour de Peer Gynt. Allegro agitato [2:44]
8. IV. Chanson de Solveig. Andante - Allegretto tranquillamente [6:16]

EDWARD GRIEG - SIGURD JORSALFAR, musiquc de scene pour le drame de Bjornson
Trois pieces pour Orchestre, op. 56
9. I. Prelude de lAcle II (Dans le palais du roi) [3:46]
10.II. Intermezzo (Le reve dc Borghild) [3:16]
11.III.Marche triomphale [9:40]

JEAN SIBELIUS - FINLANDIA OP.26 - Poeme symphonique
12. Andante sostenuto - Allegro moderato - Allegro [9:27]
13. EN SAGA OP.9 - Poeme symphonique pour grand orchestre [18:28]

CD 2:

JEAN SIBELIUS - LEMMINKAINEN - SUITE OP.22 - Legendes pour orchestre
1. I. Lemminkainen et les vierges de Saari [15:29]
2. II. Lemminkainen a Tuonela [15:12]
3. III.Le cygne de Tuonela [8:29]
4. IV. Retour de Lemminkainen [6:10]

5. LE BARDE OP.64 - Poeme symphonique pour orchestre [6:51]

JEAN SIBELIUS - VALSE TRISTE OP.44
6. Lento [6:14]

JEAN SIBELIUS - TAPIOLA OP. 112 - Poeme symphonique
7. Largamente - Allegro moderato - Allegro
Allegro moderato - Allegro - Allegro moderato [20:12]

"Отчет EAC (CD1)" ▼TextExact Audio Copy V0.99 prebeta 3 from 28. July 2007

Отчёт EAC об извлечении, выполненном 27. июня 2008, 22:58

Edvard Grieg & Jean Sibelius / Splendeurs du Nord (disc 1)

Дисковод: PHILIPS DVD-RAM SDVD8821 Adapter: 0 ID: 1

Режим чтения : Достоверность
Использование точного потока : Да
Отключение кэша аудио : Да
Использование указателей C2 : Нет

Коррекция смещения при чтении : 6
Способность читать области Lead-in и Lead-out : Нет
Заполнение пропущенных сэмплов тишиной : Да
Удаление блоков с тишиной в начале и конце : Нет
При вычислениях CRC использовались нулевые сэмплы : Нет
Интерфейс : Установленный внешний ASPI-интерфейс

Выходной формат : Внутренние WAV-операции
Формат сэмплов : 44.100 Гц; 16 бит; стерео


TOC извлечённого CD

Трек | Старт | Длительность | Начальный сектор | Конечный сектор
---------------------------------------------------------------------
1 | 0:00.00 | 4:00.00 | 0 | 17999
2 | 4:00.00 | 4:48.00 | 18000 | 39599
3 | 8:48.00 | 3:47.00 | 39600 | 56624
4 | 12:35.00 | 2:12.00 &nbs
640ca65e4c5494de2eb1a15f25132109e149e356(1995-1998) Edward Grieg / Peer Gynt - Lyric Pieces - Orchestral Pieces | Edward Grieg, Jean Sibelius / Splendeurs du Nord (Classical) [FLAC (tracks+.cue), lossless] (1995-1998) Edward Grieg / Peer Gynt - Lyric Pieces - Orchestral Pieces | Edward Grieg, Jean Sibelius / Splendeurs du Nord (Classical) [FLAC (tracks+.cue), lossless] " />

Аплоадер: Админ, дата: 13-06-2011, 20:38, торрент скачан: 359 раз

Понравилась раздача? Посмотрите эти:
  • (2011) VA / 40 Most Beautiful Orchestral Classics (Classical) [MP3, 320/CBR ...
  • (2001)James Last & His Orchestra - The Best Of Romantic Classics [MP3 3 ...
  • (2008, сборник) VA - The A to Z of classical Music - №1: BEST OF BAROQUE (c ...
  • (2008, сборник) VA / The A to Z of classical Music - №18: TCHAIKOVSKY (clas ...
  • (2007) VA / The Piano Collection (Classical) [MP3, 320/CBR]
  • (2008, сборник) VA / Легенды скрипки - 2 CD (Classical, violin) [MP3, 320/C ...
  • (2006, 21CDs Box Set) Steinway Legends - Grand Collection (Instrumental, So ...
  • (2008, 10 CD Box set) Jеno Jando / Haydn: The Complete Piano Sonatas (Class ...
  • (Сборник, 2004-2012) Ronald Brautigam / Beethoven: Complete Works for Solo ...
  • (1997) (оркестровая музыка) Виртуозы Москвы играют Чайковского — "Детс ...
  • (1678-1741) ANTONIO VIVALDI - The Masterworks [40 CD Box Set] (classical) [ ...
  • (2001, сборник) VA - Одинокий пастух Vol.3 - Галерея инструментальной музык ...
  • (2005) Mozart / The Very Best Of Mozart(2CD) (Classical) [FLAC (track+.cue) ...
  • (Дискография) Wolfgang Amadeus Mozart: Premium Edition [40CD] (classical) [ ...
  • (1989) Ludwig van Beethoven - Все симфонии / All Symphonies [6CD] (classica ...
  • (2003) Joe Dassin / Grand Collection (Pop/Chanson) [FLAC (tracks+.cue), los ...
  • (2011, 36 CD Box set) Samson Francois / The Complete EMI Recordings (Class ...
  • (2007, 60xCD Box Set + Booklet) Beethoven / Complete Masterpieces (Classica ...
  • (1994) И. С. Бах (J.S. Bach) — Концерты и сонаты — флейта / cioncerto & ...
  • (2007, сборник) Вольфганг Амадей Моцарт - Концерты (classical) [mp3 320CBR] ...
  • (2003) Сергей Васильевич Рахманинов / Избранное (Классическая музыка) [MP3 ...
  • (2004 , Сборник ) Томазо Альбинони / Оркестровые произведения. Камерная му ...
  • (1993-2005) П.И.Чайковский / Концерты 1-3; Симфонии 3, 5; Итальянское капри ...
  • (1994, 5CDs Box set) VA / A Voyage Through Classical Music (Classical) [FLA ...
  • (2012) Giovanni Francesco Giuliani / Harp Sonatas - Lisetta Rossi (Classica ...
  • Информация
    Посетители, находящиеся в группе Гости, не могут оставлять комментарии к данной публикации.