вход на сайт

Имя пользователя :
Пароль :

Восстановление пароля Регистрация
(2003) Vivaldi / Violin Concertos Yehudi Menuhin (2CD) (Камерная музыка) [FLAC (image+.cue) lossless]
Рейтинг:
(голосов: 1)



[img]{THEME}/images/logopost.png[/img]



Исполнитель: Vivaldi
Альбом: Violin Concertos Yehudi Menuhin
Тип альбома: Студийный (LP)
Год выпуска: 2003
Жанр: Камерная музыка
Формат: FLAC(image+.cue)
Битрейт: lossless

СD1:
▼Продолжительность: 00:56:19

Concerto in E RV265 (Op. 3 No. 12)
[03:23] 1. I. Allegro
[03:12] 2. II. Largo
[03:20] 3. III. Allegro
Concerto in A minor RV356 (Op. 3 No. 6)
[02:54] 4. I. Allegro
[01:38] 5. II. Largo
[02:33] 6. III. Presto
Concerto in D minor RV 242 (Op. 8 No. 7)
[02:52] 7. I. Allegro
[02:37] 8. II. Largo
[03:22] 9. III. Allegro
Concerto in G minor RV310 (Op. 3 No. 3)
[02:29] 10. I. Allegro
[02:04] 11. II. Largo
[02:32] 12. III. Allegro
Concerto in C RV178 (Op. 8 No. 12)
[03:16] 13. I. Allegro
[02:49] 14. II. Largo
[03:37] 15. III. Allegro
Concerto in D minor RV 236 (Op. 8 No. 9)
[03:06] 16. I. Allegro
[02:00] 17. II. Largo
[02:37] 18. III. Allegro
Concerto in D RV230 (Op. 3 No. 9)
[02:06] 19. I. Allegro
[03:46] 20. II. Larghetto
[02:29] 21. III. Allegro

Отчет XLD:
▼X Lossless Decoder version 20090320 (105.1)

XLD extraction logfile from 2009-04-27 22:52:14 +0400

Yehudi Menuhin; Jerzy Maksymiuk: Polish Chamber Orchestra / Vivaldi: Violin Concertos [Disc 1]

Used drive : MATSHITA DVD-R UJ-857E (revision ZF1E)

Use cdparanoia mode : YES (CDParanoia III 10.2 engine)
Disable audio cache : OK for the drive with cache less than 2750KB
Make use of C2 pointers : YES
Read offset correction: 102
Max retry count : 100

TOC of the extracted CD
Track | Start|Length| Start sector | End sector
---------------------------------------------------------
1| 00:00:00 | 03:23:37 | 0|15261
2| 03:23:37 | 03:12:03 | 15262|29664
3| 06:35:40 | 03:20:60 | 29665|44724
4| 09:56:25 | 02:54:05 | 44725|57779
5| 12:50:30 | 01:38:07 | 57780|65136
6| 14:28:37 | 02:33:63 | 65137|76674
7| 17:02:25 | 02:52:00 | 76675|89574
8| 19:54:25 | 02:37:00 | 89575| 101349
9| 22:31:25 | 03:22:02 |101350| 116501
10| 25:53:27 | 02:29:70 |116502| 127746
11| 28:23:22 | 02:04:03 |127747| 137049
12| 30:27:25 | 02:32:17 |137050| 148466 
4e5e1a5b1101108e69fdd6d04f6e4c28303e9c4c(2003) Vivaldi / Violin Concertos Yehudi Menuhin (2CD) (Камерная музыка) [FLAC (image+.cue) lossless] (2003) Vivaldi / Violin Concertos Yehudi Menuhin (2CD) (Камерная музыка) [FLAC (image+.cue) lossless] " />

Аплоадер: Админ, дата: 25-02-2010, 00:23, торрент скачан: 359 раз

Понравилась раздача? Посмотрите эти:
  • (2012) Владимир Кузьмин / Endorfin (Русский Рок) [FLAC (image+.cue), lossle ...
  • Вивальди / Vivaldi
  • (2007-2008,сборник)VA / Музыка Для Малышей [12CD] (Классическая, инструмент ...
  • (2007, сборник) VA / The Greatest Classical Collection Ever (Classical, 4 B ...
  • (2008, сборник) VA / Легенды скрипки - 2 CD (Classical, violin) [MP3, 320/C ...
  • (2007) Ensemble Guidantus / Vivaldi : Concerti per violino, archi e cembalo ...
  • (1678-1741) ANTONIO VIVALDI - The Masterworks [40 CD Box Set] (classical) [ ...
  • (1994) LUDWIG VAN BEETHOVEN, ALFRED BRENDEL - Favourite Piano Sonatas CD2 ( ...
  • (Дискография) Wolfgang Amadeus Mozart: Premium Edition [40CD] (classical) [ ...
  • (1989) Ludwig van Beethoven - Все симфонии / All Symphonies [6CD] (classica ...
  • (Дискография, 31 CD) Сергей Рахманинов (Sergei Rachmaninoff) / Полное собра ...
  • (1968) The Kinks / The Kinks Are the Village Green Preservation Society (Cl ...
  • (2009) Paul Cardall / Sacred Piano (New Age) [FLAC (tracks+.cue), lossless] ...
  • (2007, 60xCD Box Set + Booklet) Beethoven / Complete Masterpieces (Classica ...
  • (1990) Ф.Мендельсон / Mendelssohn - Violin Concerto (flac, Lossless)
  • (1994) И. С. Бах (J.S. Bach) — Концерты и сонаты — флейта / cioncerto & ...
  • (1999) Антонио Вивальди - Времена года / Antonio Vivaldi - The Four Seasons ...
  • (2007, сборник) Вольфганг Амадей Моцарт - Концерты (classical) [mp3 320CBR] ...
  • (2007) Sans Souci / Vivaldi "Aurei Zeffiretti" (Classical, baroque) [MP3, ...
  • (2004 , Сборник ) Томазо Альбинони / Оркестровые произведения. Камерная му ...
  • (2007) Антонио Вивальди/ Четыре времени года(Classical) [MP3, 320 kbps/CBR] ...
  • (1993-2005) П.И.Чайковский / Концерты 1-3; Симфонии 3, 5; Итальянское капри ...
  • (1989) Galway - Scimone - I Solisti Veneti / Vivaldi - 6 Concertos (Classic ...
  • (2002) ENGLISH CHAMBER ORCHESTRA - ANTONIO VIVALDI / The Four Seasons (Клас ...
  • (2005) Antonio Vivaldi / Konzerte (классика) [mp3, 256 kbps/CBR]
  • Информация
    Посетители, находящиеся в группе Гости, не могут оставлять комментарии к данной публикации.