вход на сайт

Имя пользователя :
Пароль :

Восстановление пароля Регистрация
(1990) Mozart / Requiem (KV 626) (Classical) [FLAC (tracks+.cue) lossless]
Рейтинг:
(голосов: 1)



[img]{THEME}/images/logopost.png[/img]



Исполнитель: Mozart
Альбом: Requiem (KV 626)
Тип альбома: Студийный (LP)
Год выпуска: 1990
Жанр: Classical
Формат: FLAC(track+ cue)
Битрейт: lossless
Продолжительность: 01:04:12

Треклист:
[09:36] 01. Requiem Kyrie
[01:59] 02. Dies Irae
[04:17] 03. Tuba Mirum
[03:10] 04. Rex Tremendae
[07:03] 05. Recordare
[03:50] 06. Confutatis
[04:10] 07. Lacrimosa
[04:39] 08. Domine Jesu
[05:05] 09. Hostias
[01:57] 10. Sanctus
[06:53] 11. Benedictus
[11:28] 12. Agnus Dei Lux Aeterna

Инфо:
Реквием (KV 626) (лат. Requiem — траурная заупокойная месса) — последнее незавершённое произведение великого композитора Вольфганга Амадея Моцарта, над которым он работал перед самой смертью — траурная заупокойная месса, исполняемая на традиционный принятый в католической службе латинский текст. По сей день ведутся споры о том, какая в точности часть принадлежит Моцарту, а какая — Францу Ксаверу Зюсмайеру и Йозефу Айблеру, дописавшим произведение. Тем не менее, «Реквием» является одним из наиболее известных произведений Моцарта и рассматривается как одно из важнейших его творений.

Исполнители:
Edith Mathis - сопрано
Julia Hamari - контральто
Wieslaw Ochman - тенор
Karl Ridderbusch - бас
Konzertvereinigung Wiener Staatsopernchor - Хор
Wiener Philharmoniker - Оркестр
Karl Bohm - Дирижер

Отчет EAC:
▼EAC extraction logfile from 1. August 2009, 12:51 for CD
Karl Bцhm, Wiener Philharmoniker / Mozart: Requiem d-moll, KV.626

Used drive: TSSTcorpDVD+-RW TS-L632H Adapter: 1ID: 0
Read mode : Secure with NO C2, accurate stream, disable cache
Read offset correction : 6
Overread into Lead-In and Lead-Out : No

Used output format : C:Soft AudioFLACflac.exe (User Defined Encoder)
128 kBit/s
Additional command line options : -V -8 -T "artist=%a" -T "title=%t" -T "album=%g" -T "date=%y" -T "tracknumber=%n" -T "genre=%m" %s

Other options:
Fill up missing offset samples with silence : Yes
Delete leading and trailing silent blocks : No
Native Win32 interface for Win NT & 2000


Track1
Filename F:MusicKarl Bцhm, Wiener Philharmoniker- Mozart- Requiem d-moll, KV.6261 - Requiem Kyrie.wav

Pre-gap length0:00:02.33

Peak level 76.0 %
Track quality 100.0 %
Test CRC 38ABEA81
Copy CRC 38ABEA81
Copy OK

Track2
Filename F:MusicKarl Bцhm, Wiener Philharmoniker- Mozart- Requiem d-moll, KV.6262 - Dies Irae.wav

Peak level 67.0 %
Track quality 99.9 %
Test CRC 83F52BC8
Copy CRC 83F52BC8
Copy OK

Track3
Filename F:MusicKarl Bцhm, Wiener Philharmoniker- Mozart- Requiem d-moll, KV.6263 - Tuba Mirum.wav

Pre-gap length0:00:02.00

Peak level 41.7 %
Track quality 100.0 %
Test CRC BD815894
Copy CRC BD815894
Copy OK

Track4
Filename F:MusicKarl Bцhm, Wiener Philharmoniker- Mozart- Requiem d-moll, KV.6264 - Rex Tremendae.wav

Pre-gap length0:00:01.30

Peak level 75.4 %
507bdbf525f74fe54ce4e76d4b2718c1d6870d08(1990) Mozart / Requiem (KV 626) (Classical) [FLAC (tracks+.cue) lossless] (1990) Mozart / Requiem (KV 626) (Classical) [FLAC (tracks+.cue) lossless] " />

Аплоадер: Админ, дата: 24-02-2010, 19:32, торрент скачан: 359 раз

Понравилась раздача? Посмотрите эти:
  • (1791-1990) V.A. Mozart–Requiem In D Minor / Вольфганг Амадей Моцарт — Рекв ...
  • (Jazz) Ray Charles — The Very Best Of Ray Charles - 2000, FLAC (tracks), lo ...
  • (Soundtrack,1999) Fight Club / Бойцовский клуб - The Dust Brothers [FLAC (t ...
  • (1999) Red Hot Chili Peppers - Californication (Alternative rock, Funk) [FL ...
  • (Soundtrack,2007) The Orange Box - (Half-Life 2, Portal, Team Fortress 2) [ ...
  • (Дискография, 2000-2007) SUM 41 (Punk-Rock/Pop-Punk) [FLAC (tracks + .cue), ...
  • (2009) The Black Eyed Peas / The E.N.D. (The Energy Never Dies) (Target Del ...
  • (2001) GORILLAZ / Gorillaz (US Edition) (Hip-Hop) [FLAC (image+cue), lossle ...
  • (2010 , OST) Пипец / Kick Ass (OST) [FLAC (tracks+.cue) lossless]
  • (2008) Karunesh /Enlightenment (New Age) [FLAC (image+.cue), lossless]
  • (1988) David Grisman Quintet feat. Svend Asmussen / Svingin With Svend (Jaz ...
  • (2004-2006) Amy Winehouse (Rhythm & Blues/Neo-Soul, Ska, Jazz Pop) [FLAC(t ...
  • (1791) MOZART Requiem, KV 626 (Classic) [lossless, APE (image)+eaclog]
  • (1987) W.A.Mozart / Моцарт - Requiem / Реквием (Karajan / Караян) (Классик ...
  • (2009) Miley Cyrus / The Time of Our Lives (Pop) [FLAC (tracks+.cue), lossl ...
  • (2010) [AMATORY] / Инстинкт обречённых (Nu Metal) [FLAC (tracks), lossless] ...
  • (1999) Necrophagist / Onset Of Putrefaction (Technical Death Metal) [FLAC ( ...
  • (2011) This Will Destroy You / Tunnel Blanket (Post Rock) [FLAC (tracks+.cu ...
  • (2004) Дельфин / Запись концерта 19.11.04 (Alternative|Experimental) [FLAC ...
  • (Дискография, 2002 - 2012) Rodrigo y Gabriela (Acoustic, Flamenco, Classica ...
  • Информация
    Посетители, находящиеся в группе Гости, не могут оставлять комментарии к данной публикации.