вход на сайт

Имя пользователя :
Пароль :

Восстановление пароля Регистрация
(2013) Richard Clayderman / Romantique (Easy Listening, Instrumental, Classical, Piano) [FLAC (tracks+.cue), lossless]
Рейтинг:
(голосов: 1)



[img]{THEME}/images/logopost.png[/img]



Исполнитель: Richard Clayderman
Альбом: Romantique
Тип альбом: Студийный
Год выпуска:2013
Жанр:Easy Listening, Instrumental, Classical, Piano
Страна (Издатель, Каталожный номер):EU(Decca, 3724563)
Аудиокодек: FLAC (*.flac)
Тип рипа: tracks+.cue
Битрейт: lossless
Лог файлы: присутствуют
Наличие сканов в содержимом раздачи: Есть
Продолжительность: 00:52:00

Wikipedia | Official page | Last.fm | Facebook

Об исполнителе: Richard Clayderman - французский пианист, аранжировщик, исполнитель классической и этнической музыки, а также музыки к кинофильмам.


Tреклист:
01. Spartacus Adagio (4:44)
02. Les Miserables. Medley (5:07)
03. Ballade Pour Adeline (2:38)
04. The Flower Duet (3:47)
05. West Side Story. Medley (4:45)
06. Someone Like You (4:38)
07. Montagues & Capulets (3:28)
08. Schindlers List (3:40)
09. Hallelujah (3:32)
10. Le Onde (5:31)
11. O Mio Babbino Caro (3:18)
12. You Raise Me Up (3:49)
13. Nessun Dorma (3:05)

Лог создания рипа ▼Text
Exact Audio Copy V1.0 beta 3 from 29. August 2011

EAC extraction logfile from 5. February 2013, 20:46

Richard Clayderman / Romantique

Used drive : PLEXTOR DVDR PX-891SA Adapter: 0 ID: 4

Read mode : Secure
Utilize accurate stream : Yes
Defeat audio cache : Yes
Make use of C2 pointers : No

Read offset correction : 6
Overread into Lead-In and Lead-Out : No
Fill up missing offset samples with silence : Yes
Delete leading and trailing silent blocks : No
Null samples used in CRC calculations : Yes
Used interface : Native Win32 interface for Win NT & 2000
Gap handling : Appended to previous track

Used output format : User Defined Encoder
Selected bitrate : 1024 kBit/s
Quality : High
Add ID3 tag : No
Command line compressor : C:Program Files (x86)Exact Audio CopyFLACFLAC.EXE
Additional command line options : -0 -V -T "ARTIST=%artist%" -T "TITLE=%title%" -T "ALBUM=%albumtitle%" -T "DATE=%year%" -T "TRACKNUMBER=%tracknr%" -T "TOTALTRACKS=%numtracks%" -T "GENRE=%genre%" -T "COMMENT=Naftamusic Release!" %source%


TOC of the extracted CD

Track | Start | Length | Start sector | End sector
---------------------------------------------------------
1 | 0:00.00 | 4:43.66 | 0 | 21290
2 | 4:43.66 | 5:07.28 | 21291 | 44343
3 | 9:51.19 | 2:37.74 | 44344 | 56192
4 | 12:29.18 | 3:47.27 | 56193 | 73244
5 | 16:16.45 | 4:45.10 | 73245 | 94629
6 | 21:01.55 | 4:38.22 | 94630 |  
463253b7d7110208d6af0be6e9a0f818e9864f99(2013) Richard Clayderman / Romantique (Easy Listening, Instrumental, Classical, Piano) [FLAC (tracks+.cue), lossless] (2013) Richard Clayderman / Romantique (Easy Listening, Instrumental, Classical, Piano) [FLAC (tracks+.cue), lossless] " />

Аплоадер: Админ, дата: 4-03-2013, 21:46, торрент скачан: 359 раз

Понравилась раздача? Посмотрите эти:
  • (2013) Buddy Guy / Rhythm & Blues (2CD) (Blues) [FLAC (image+.cue), Lossles ...
  • (2013) Paul McCartney / New (Deluxe Edition) (Rock) [FLAC (image,+.cue), lo ...
  • (2013) Prodigy & The Alchemist / Albert Einstein (Underground Hip-Hop) [FLA ...
  • (2013) Hans Zimmer / Человек из стали / Man Of Steel [Deluxe Edition] (2 CD ...
  • (2010) Clean Tears / Innerve (Techno, Vocaloid) [FLAC (tracks+.cue), lossle ...
  • (2010) Zaz / Zaz (Nu jazz, Chanson, Soul) [FLAC (tracks+.cue), lossless]
  • (2011) Adele / 21 (Jazz, Lounge, Easy Listening) [FLAC (tracks + .cue), los ...
  • (2011) Ludovico Einaudi / Islands: Essential Einaudi (Classical, Contempora ...
  • (Дискография, 1998-2005) Jeanette Alexander (Instrumental, New Age, Piano S ...
  • (2012) Yiruma / Stay In Memory (New Age, Instrumental, Neoclassical, Piano) ...
  • (2012) Marconi Union / Different Colours (Post Rock, Downtempo, Ambient) [F ...
  • (2012, Сборник) VA / Saxophone Golden Best (Jazz, Smooth Jazz) [FLAC (track ...
  • (2008, Сборник) VA / Relax Piano - Yesterday - Trai Tim Mua Thu - Vol.7 (Ne ...
  • (2012) Tomandandy / Resident Evil: Retribution (Score, Soundtrack)[FLAC (tr ...
  • (2012) Sally Night / Love For Sale (Vocal Jazz) [FLAC (tracks+.cue), lossle ...
  • (2012) The Piano Guys / The Piano Guys (Contemporary Classic, Instrumental, ...
  • (1996) The Rasmus / Peep (Finnish Version) (Alternative Rock) [FLAC (tracks ...
  • (2012) Alicia Keys / Girl On Fire (R&B) [FLAC (tracks+.cue), lossless]
  • (2011) Дельфин / Существо (Alternative|Experimental) [FLAC (tracks+.cue), l ...
  • (2012) Les Friction / Les Friction (Alt. Rock/Neo-Classical/Orchestral) [FL ...
  • (2011) SeeS / The enD (Progressive/Math Metal) [FLAC (tracks+.cue), lossles ...
  • (2012) Our Lady Peace / Curve (Alternative/Rock) [FLAC (tracks+.cue), lossl ...
  • (2011) Phinehas / Thegodmachine (Metalcore) [FLAC (tracks+.cue), lossless]
  • (2012) For Today / Immortal (Metalcore, Hardcore, Christian) [FLAC (tracks+ ...
  • (2012) Laid Back / Cosmic Vibes (Electronic, Pop, Electro, Downtempo) [FLAC ...
  • Информация
    Посетители, находящиеся в группе Гости, не могут оставлять комментарии к данной публикации.