вход на сайт

Имя пользователя :
Пароль :

Восстановление пароля Регистрация
(2009, сборник) VA / Классика Навсегда (Classical) [FLAC (tracks+.cue), lossless]
Рейтинг:
(голосов: 1)



[img]{THEME}/images/logopost.png[/img]



Сборник
Исполнитель: VA
Название сборника: Классика Навсегда
Год выпуска: 2009
Жанр: Classical
Формат: FLAC (tracks+.cue)
Битрейт: lossless
Продолжительность: 05:59:06

Грациозная Классика▼
Продолжительность: 01:10:40

Tреклист:
[03:13] 1.Прибытие Царицы Савской из оратории «Соломон», Г.Ф.Гендель
[06:45] 2.Увертюра к опере «Волшебная флейта», В.А Моцарт
[05:45] 3.Увертюра к опере «Руслан и Людмила», М Глинка
[04:02] 4.Мелодия, А.Рубинштейн
[07:49] 5.Вальс цветов из балета Щелкунчик, П.Чайковский
[01:42] 6.Пиццикато из балета «Сивилья», А.Делиб
[10:33] 7.«Лето» из «Времён года», А. Вивальди
[02:12] 8.«Вальс-минутка», Ф.Шопен
[01:50] 9.«Танец феи Драже», П.Чайковский
[04:28] 10.«Призыв трубы и ария», Г.Пёрселл
[01:23] 11.«Шутка» из второй оркестровой сюиты, И.С.Бах
[02:32] 12.«Привет зиме» из балета «Времена года»,А.Глазунов
[03:57] 13.Менуэт, Л.Боккерини
[02:42] 14.Финал «Маленькой ночной серенады», В.А.Моцарт
[03:48] 15.Вальс из балета «Спящая красавица», П.Чайковский
[04:48] 16.«На прекрасном голубом Дунае», И.Штраус-сын
[02:53] 17.«Снег за окном», С.Прокофьев

"Отчет EAC" ▼TextExact Audio Copy V1.0 beta 2 from 29. April 2011

Отчёт EAC об извлечении, выполненном 14. сентября 2011, 14:04

- / Грациозная Классика

Дисковод: TSSTcorpCDDVDW TS-L633F Adapter: 0 ID: 1

Режим чтения : Достоверность
Использование точного потока : Да
Отключение кэша аудио : Да
Использование указателей C2 : Нет

Коррекция смещения при чтении : 6
Способность читать области Lead-in и Lead-out : Нет
Заполнение пропущенных сэмплов тишиной : Да
Удаление блоков с тишиной в начале и конце : Нет
При вычислениях CRC использовались нулевые сэмплы : Нет
Интерфейс : Встроенный Win32-интерфейс для Win NT/2000
Обработка зазоров : Добавлено к предыдущему треку

Выходной формат : Пользовательский кодировщик
Выбранный битрейт : 768 kBit/s
Качество : Высокий
Добавление ID3-тега : Нет
Утилита сжатия : C:Program FilesExact Audio CopyFLACFLAC.EXE
Дополнительные параметры : -8 -V -T "ARTIST=%artist%" -T "TITLE=%title%" -T "ALBUM=%albumtitle%" -T "DATE=%year%" -T "TRACKNUMBER=%tracknr%" -T "GENRE=%genre%" -T "COMMENT=%comment%" -T "BAND=%albuminterpret%" -T "COMPOSER=%composer%" %haslyrics%--tag-from-


TOC извлечённого CD

Трек | Старт | Длительность | Начальный сектор | Конечный сектор
---------------------------------------------------------------------
1 | 0:00.00 | 3:13.18 | 0 | 14492
2 | 3:13.18 | 6:45.21 | 14493 | 44888
3 | 9:58.39 | 5:45.61 | 44889 | 70824
4 | 15:44.25 | 4:04.19 |  
3c18360db2b6444ce73088e9998bfb13fc5684ec(2009, сборник) VA / Классика Навсегда (Classical) [FLAC (tracks+.cue), lossless] (2009, сборник) VA / Классика Навсегда (Classical) [FLAC (tracks+.cue), lossless] " />

Аплоадер: Админ, дата: 14-09-2011, 14:25, торрент скачан: 359 раз

Понравилась раздача? Посмотрите эти:
  • (2012) Sting / Fifteen Healing Bites (Pop Rock)(Chinese Dragon) [FLAC (trac ...
  • (2013) Смоки Мо / Младший (Rap, Hip-Hop) [FLAC (Tracks+.Cue), Lossless]
  • (2013) Маклай и Ганза / Статус-Кво (Rap, Hip-Hop) [FLAC (Tracks+.Cue), Loss ...
  • (2013) Lone / Спутник (Rap, Hip-Hop) [FLAC (Tracks+.Cue), Lossless]
  • (2013) Стриж / Игристое (Rap, Hip-Hop) [FLAC (Tracks+.Cue), Lossless]
  • (2013) Баста / Баста 4 (Rap, Hip-Hop) [FLAC (Tracks+.Cue), Lossless]
  • (2013) Loc-Dog & Tony VA / Все знают всё (Rap, Hip-Hop) [FLAC (Tracks+.Cue ...
  • (1989) Fausto Papetti / Magic Sax [Vol. 2] (Instrumental) [FLAC (tracks+.cu ...
  • (2012) Рем Дигга / Черника (Rap) [FLAC (tracks+.cue), lossless]
  • (2012) Три Кита (Зануда, Gipsy King, Тато) / Три Кита (Rap) [FLAC (tracks+. ...
  • (2005, сборник) VA / Магия Гитары (Instrumental) [FLAC (tracks+.cue), lossl ...
  • (2011) ГРОТ / О Пути По Встречной (Rap) [FLAC (tracks+.cue), lossless]
  • (2012) The Rasmus / The Rasmus (Alternative Rock/Melodic Rock) [FLAC (track ...
  • (1993) Mireille Mathieu / Chante Piaf (Pop) [FLAC (tracks+.cue), lossless]
  • (2011, Сборник) VA / The Worlds Greatest Ballads (3CD) (Pop) [FLAC (tracks+ ...
  • (2005) Анна Герман / Наши любимые песни (Pop, Retro) [FLAC(image+.cue), los ...
  • (2012) Guf / Сам И ... (Rap) [FLAC (tracks+.cue), lossless]
  • (2012) Адвайта / Не спать (Rap) [FLAC (tracks+.cue), lossless]
  • (2012) Триада / Мои глаза открыты (Rap) [FLAC (tracks+.cue), lossless]
  • (2012) KREC / Молча проще (Rap) [FLAC (tracks+.cue), lossless]
  • (2012) Птаха / Старые тайны (Rap) [FLAC (tracks+.cue), lossless]
  • (2012) Rammstein / Mein Herz brennt (Industrial, Tanz-Metal) [FLAC (tracks ...
  • (2011) Ассаи / ОМ (Rap) [FLAC (tracks+.cue), lossless]
  • (2012) Ария / Live In Studio (Heavy Metal) [FLAC (image+.сue), lossless]
  • (2012) Словетский / Мозайка (Rap) [FLAC (tracks+.cue), lossless]
  • Информация
    Посетители, находящиеся в группе Гости, не могут оставлять комментарии к данной публикации.