вход на сайт

Имя пользователя :
Пароль :

Восстановление пароля Регистрация
(1989) Galway - Scimone - I Solisti Veneti / Vivaldi - 6 Concertos (Classical) [FLAC (tracks+.cue), lossless]
Рейтинг:
(голосов: 1)



[img]{THEME}/images/logopost.png[/img]



Исполнитель: Джеймс ГЭЛУЭЙ, I Solisti Veneti, дирижёр - Клаудио ШИМОНЕ
Альбом: Vivaldi - 6 Concertos
Тип альбома: Студийный
Год выпуска: 1989
Жанр: Classical
Формат: FLAC (tracks+.cue)
Битрейт: lossless
Продолжительность: 00:56:37

Tреклист:
1-3. Концерт соль мажор, RV 436 [9:41]
4-6. Концерт ля минор, RV 108 [8:44]
7-9. Концерт ре мажор, RV 427 [9:13]
10-12. Концерт соль мажор, RV 438 [10:35]
13-15. Концерт ля минор, RV 440 [9:39]
16-18. Концерт ре мажор, RV 429 [8:25]

"Отчет EAC" ▼TextExact Audio Copy V0.99 prebeta 5 from 4. May 2009

EAC extraction logfile from 8. October 2010, 17:13

Galway - Scimone - I Solisti Veneti / Vivaldi - 6 Concertos

Used drive : HL-DT-STDVDRAM GSA-H12L Adapter: 0 ID: 0

Read mode : Secure
Utilize accurate stream : Yes
Defeat audio cache : Yes
Make use of C2 pointers : No

Read offset correction : 667
Overread into Lead-In and Lead-Out : No
Fill up missing offset samples with silence : Yes
Delete leading and trailing silent blocks : No
Null samples used in CRC calculations : Yes
Used interface : Installed external ASPI interface
Gap handling : Appended to previous track

Used output format : User Defined Encoder
Selected bitrate : 1024 kBit/s
Quality : High
Add ID3 tag : No
Command line compressor : C:ProgrammeFLACflac.exe
Additional command line options : -6 -T "Artist=%a" -T "Title=%t" -T "Album=%g" -T "Date=%y" -T "Tracknumber=%n" -T "Genre=%m" %s -o %d


TOC of the extracted CD

Track | Start | Length | Start sector | End sector
---------------------------------------------------------
1 | 0:00.33 | 3:03.05 | 33 | 13762
2 | 3:03.38 | 3:49.25 | 13763 | 30962
3 | 6:52.63 | 2:52.37 | 30963 | 43899
4 | 9:45.25 | 3:06.03 | 43900 | 57852
5 | 12:51.28 | 2:44.00 | 57853 | 70152
6 | 15:35.28 | 2:58.05 | 70153 | 83507
7 | 18:33.33 | 2:49.67 | 83508 | 96249
8 | 21:23.25 | 3:55.13 | 96250 | 113887
9 | 25:18.38 | 2:32.15 | 113888 | 125302
10 | 27:50.53 | 3:16.70 | 125303 | 140072
11 | 31:07.48 | 3:57.52 | 140073 |&n
00b9d23c6ba006e2b0f891ec7001634c5232df0b(1989) Galway - Scimone - I Solisti Veneti / Vivaldi - 6 Concertos (Classical) [FLAC (tracks+.cue), lossless] (1989) Galway - Scimone - I Solisti Veneti / Vivaldi - 6 Concertos (Classical) [FLAC (tracks+.cue), lossless] " />

Аплоадер: Админ, дата: 2-08-2011, 10:51, торрент скачан: 359 раз

Понравилась раздача? Посмотрите эти:
  • (2010) Вячеслав Бутусов и Ю-Питер / Цветы и Тернии (Rock) [FLAC (tracks + . ...
  • (2010) Zaz / Zaz (Nu jazz, Chanson, Soul) [FLAC (tracks+.cue), lossless]
  • (2011) Adele / 21 (Jazz, Lounge, Easy Listening) [FLAC (tracks + .cue), los ...
  • (2002) PPK (ППК) / ReLoad. Russian Trance (Trance) [FLAC (tracks+cue), loss ...
  • (2011) Виктория - победительница / Victorious (OST) [FLAC (tracks+.cue), lo ...
  • (2011) B.B. King / Icon (Blues) [FLAC (tracks+.cue), lossless]
  • (2012) The Piano Guys / The Piano Guys (Contemporary Classic, Instrumental, ...
  • (1999) Muffler / Muffler (Drum & Bass) [FLAC (tracks+.cue), lossless]
  • (2011) Ляпис Трубецкой / Веселые картинки (Rock) [FLAC (tracks+.cue), lossl ...
  • (2011) Gandharva / Lord of the Universe (New Age, Classical, Erhu) [FLAC (t ...
  • (2011) Дельфин / Существо (Alternative|Experimental) [FLAC (tracks+.cue), l ...
  • (2011) Ленинград / Хна (Rock) [FLAC (tracks+.cue), lossless]
  • (2012) Les Friction / Les Friction (Alt. Rock/Neo-Classical/Orchestral) [FL ...
  • (2011) SeeS / The enD (Progressive/Math Metal) [FLAC (tracks+.cue), lossles ...
  • (2011) Downhere / On The Altar Of Love (Alternative Rock/Christian Rock) [F ...
  • (2011) The Browning / Burn This World (Deathcore/Electronic) [FLAC (tracks+ ...
  • (2012) KoRn feat. Skrillex / Chaos Lives In Everything (UK Promo) (Nu-metal ...
  • (2012) Nine Lashes / World We View (Alt.Rock/Alt.Metal/Christian) [FLAC (tr ...
  • (2011) Phinehas / Thegodmachine (Metalcore) [FLAC (tracks+.cue), lossless]
  • (2012) For Today / Immortal (Metalcore, Hardcore, Christian) [FLAC (tracks+ ...
  • Информация
    Посетители, находящиеся в группе Гости, не могут оставлять комментарии к данной публикации.