вход на сайт

Имя пользователя :
Пароль :

Восстановление пароля Регистрация
(2010) Георгий Свиридов / "Метель" №11 Великие композиторы (Classical) [FLAC (tracks+.cue), lossless]
Рейтинг:
(голосов: 1)



[img]{THEME}/images/logopost.png[/img]



Исполнитель: Георгий Свиридов
Альбом: "Метель" №11 Великие композиторы
Тип альбома: Compilation
Год выпуска: 2010
Жанр: Classical
Формат: FLAC (tracks+.cue)
Битрейт: lossless
Продолжительность: 01:00:02

Исполнители:
Большой симфонический оркестр им. П.И. Чайковского
Дирижёр - Владимир Федосеев (1-9)

Московский камерный хор, инструментальный ансамбль
Дирижёр - Владимир Минин (10-16)

Латвийский камерный оркестр
Дирижёр - Товий Лифшиц (17, 18)

Большой симфонический оркестр Гостелерадио СССР
Дирижёр - Владимир Федосеев (19-21)

Tреклист:
"Метель", музыкальные иллюстрации к повести А.С. Пушкина
01. I. Тройка - 3:09
02. II. Вальс - 3:55
03. III. Весна и осень - 2:06
04. IV. Романс - 5:34
05. V. Пастораль - 2:13
06. VI. Военный марш - 2:25
07. VII. Венчание - 3:03
08. VIII. Отзвуки вальса - 1:53
09. IX. Зимняя дорога - 2:54

"Курские песни"
10. I. Зелёный дубок - 2:05
11. II. Ты, воспой, воспой - 2:35
12. III. В городе звоны звонют - 2:27
13. IV. Ой, горе, горе - 1:54
14. V. Купил Ванька себе косу - 2:19
15. VI. Соловей мой смутный - 3:12
16. VII. За речкою, за быстрою - 0:57

Музыка для камерного оркестра(фрагмент)
17. I. Allegro con spirito - 6:32
18. II. Presto - 1:50

"Время, вперёд!"(фрагмент)
19. II. Частушка - 0:59
20. IV. Маленький фокстрот - 2:28
21. VI. Время, вперёд! - 3:50

"Отчет EAC" ▼TextExact Audio Copy V0.99 prebeta 4 from 23. January 2008

Отчёт EAC об извлечении, выполненном 22. ноября 2010, 22:09

Various / Георгий Свиридов "Метель" №11 Великие композиторы

Дисковод: YAMAHA CRW-F1E Adapter: 1 ID: 1

Режим чтения : Достоверность
Использование точного потока : Да
Отключение кэша аудио : Да
Использование указателей C2 : Нет

Коррекция смещения при чтении : 733
Способность читать области Lead-in и Lead-out : Нет
Заполнение пропущенных сэмплов тишиной : Да
Удаление блоков с тишиной в начале и конце : Нет
При вычислениях CRC использовались нулевые сэмплы : Да
Интерфейс : Встроенный Win32-интерфейс для Win NT/2000

Выходной формат : Пользовательский кодировщик
Выбранный битрейт : 768 kBit/s
Качество : Высокий
Добавление ID3-тэга : Нет
Утилита сжатия : C:Program FilesExact Audio CopyFLACFLAC.EXE
Дополнительные параметры : -6 -V -T "ARTIST=%a" -T "TITLE=%t" -T "ALBUM=%g" -T "DATE=%y" -T "TRACKNUMBER=%n" -T "GENRE=%m" -T "COMMENT=%e" %s -o %d


TOC извлечённого CD

Трек | Старт | Длительность | Начальный сектор | Конечный сектор
---------------------------------------------------------------------
1 | 0:00.00 | 3:09.58 | 0 | 14232
2 | 3:09.58 | 3:55.63 | 14233 | 31920
3 | 7:05.46 | 2:06.51 | 31921 | 41421
4 | 9:12.22 | 5
7d04518725cef43ae70d60c142f226c600d35ab7(2010) Георгий Свиридов / "Метель" №11 Великие композиторы (Classical) [FLAC (tracks+.cue), lossless] (2010) Георгий Свиридов / "Метель" №11 Великие композиторы (Classical) [FLAC (tracks+.cue), lossless] " />

Аплоадер: Админ, дата: 16-06-2011, 00:14, торрент скачан: 359 раз

Понравилась раздача? Посмотрите эти:
  • (1993) Coverdale & Page / Coverdale & Page (EMI Holland)(Hard Rock) [FLAC ( ...
  • (2000) a-ha / Minor Earth | Major Sky (Alternative Rock, Synth-pop ) [FLAC ...
  • (2013) Смоки Мо / Младший (Rap, Hip-Hop) [FLAC (Tracks+.Cue), Lossless]
  • (2013) Маклай и Ганза / Статус-Кво (Rap, Hip-Hop) [FLAC (Tracks+.Cue), Loss ...
  • (2013) Lone / Спутник (Rap, Hip-Hop) [FLAC (Tracks+.Cue), Lossless]
  • (2013) Стриж / Игристое (Rap, Hip-Hop) [FLAC (Tracks+.Cue), Lossless]
  • (2013) Баста / Баста 4 (Rap, Hip-Hop) [FLAC (Tracks+.Cue), Lossless]
  • (2013) Loc-Dog & Tony VA / Все знают всё (Rap, Hip-Hop) [FLAC (Tracks+.Cue ...
  • (1989) Fausto Papetti / Magic Sax [Vol. 2] (Instrumental) [FLAC (tracks+.cu ...
  • (2012) Рем Дигга / Черника (Rap) [FLAC (tracks+.cue), lossless]
  • (2012) Три Кита (Зануда, Gipsy King, Тато) / Три Кита (Rap) [FLAC (tracks+. ...
  • (2010) Schiller / Breathless (Electronic) [FLAC (image+.cue), lossless]
  • (2010) БИ-2 / О чём говорят мужчины (Pop-Rock) [FLAC (image + .cue), lossle ...
  • (2011) ГРОТ / О Пути По Встречной (Rap) [FLAC (tracks+.cue), lossless]
  • (1997) Jazz Cafe / Simple Pleasures (Jazz, instrumental) [FLAC (image+.сue ...
  • (2012) The Rasmus / The Rasmus (Alternative Rock/Melodic Rock) [FLAC (track ...
  • (1993) Mireille Mathieu / Chante Piaf (Pop) [FLAC (tracks+.cue), lossless]
  • (2012) The Blues Overdrive / The Blues Overdrive (Blues-Rock) [FLAC (image+ ...
  • (2012) Триада / Мои глаза открыты (Rap) [FLAC (tracks+.cue), lossless]
  • (2012) KREC / Молча проще (Rap) [FLAC (tracks+.cue), lossless]
  • (2009, сборник) VA / Классика Навсегда (Classical) [FLAC (tracks+.cue), los ...
  • (2011) Ассаи / ОМ (Rap) [FLAC (tracks+.cue), lossless]
  • (2012) Ария / Live In Studio (Heavy Metal) [FLAC (image+.сue), lossless]
  • (2008) Nirvana / The Best Of (Grunge, Alternative) [FLAC (image+.сue), loss ...
  • (2012) Словетский / Мозайка (Rap) [FLAC (tracks+.cue), lossless]
  • Информация
    Посетители, находящиеся в группе Гости, не могут оставлять комментарии к данной публикации.