вход на сайт

Имя пользователя :
Пароль :

Восстановление пароля Регистрация
(1993-2005) П.И.Чайковский / Концерты 1-3; Симфонии 3, 5; Итальянское каприччио (Classical) [FLAC (tracks), lossless]
Рейтинг:
(голосов: 1)



[img]{THEME}/images/logopost.png[/img]



Исполнитель: Пётр Ильич Чайковский
Жанр: Classical
Формат: FLAC (tracks)
Битрейт: lossless
Продолжительность: 03:29:19

Симфония №3, Итальянское Каприччио
"Симфония №3, Итальянское Каприччио" ▼
Тип альбома: Студийный
Год выпуска: 1993
Формат: FLAC (tracks+.cue)
Битрейт: lossless
Продолжительность: 01:01:58
Tреклист:
01. Symphony No.3 - 01. Introduzione ed Allegro. Moderato assai. Allegro brillante - 13:44
02. Symphony No.3 - 02. Alla tedesca. Allegro moderato e semplice - 06:41
03. Symphony No.3 - 03. Andante. Andante elegiaco - 10:11
04. Symphony No.3 - 04. Scherzo. Allegro vivo - 6:20
05. Symphony No.3 - 05. Finale. Allegro con fuoco (tempo di polacca) - 9:48
06. Italian Capriccio - 15:14

"Отчет EAC" ▼Exact Audio Copy V0.99 prebeta 5 from 4. May 2009

EAC extraction logfile from 1. January 2011, 20:40

Symphony Orchestra of St.Petersburg Philharmonia, A.Titov / P.I.Tchaikovsky Symphony No.3, Italian Capriccio

Used drive: ASUSDRW-1608P3S Adapter: 0ID: 1

Read mode : Secure
Utilize accurate stream : Yes
Defeat audio cache: Yes
Make use of C2 pointers : No

Read offset correction: 48
Overread into Lead-In and Lead-Out: No
Fill up missing offset samples with silence : Yes
Delete leading and trailing silent blocks : No
Null samples used in CRC calculations : Yes
Used interface: Native Win32 interface for Win NT & 2000

Used output format : Internal WAV Routines
Sample format: 44.100 Hz; 16 Bit; Stereo
Use compression offset : 0


TOC of the extracted CD

Track | Start|Length| Start sector | End sector
---------------------------------------------------------
1|0:00.05 | 13:44.47 | 5|61851
2| 13:44.52 |6:41.58 | 61852|91984
3| 20:26.35 | 10:11.32 | 91985| 137841
4| 30:37.67 |6:20.05 |137842| 166346
5| 36:57.72 |9:48.65 |166347| 210511
6| 46:46.62 | 15:14.58 |210512| 279119


Range status and errors

Selected range

Filename C:Documents and SettingsUserМои документыTchaikovsky 3 TitovSymphony Orchestra of St.Petersburg Philharmonia, A.Titov - P.I.Tchaikovsky Symphony No.3, Italian Capriccio.wav

Peak level 53.9 %
194fd81469ea5ca2fea74c2c397769e7c69e66da(1993-2005) П.И.Чайковский / Концерты 1-3; Симфонии 3, 5; Итальянское каприччио (Classical) [FLAC (tracks), lossless] (1993-2005) П.И.Чайковский / Концерты 1-3; Симфонии 3, 5; Итальянское каприччио (Classical) [FLAC (tracks), lossless] " />

Аплоадер: Админ, дата: 11-06-2011, 22:19, торрент скачан: 359 раз

Понравилась раздача? Посмотрите эти:
  • (2008) ANDREA BOCELLI / Incanto (classical) [FLAC (tracks+.cue) lossless]
  • (2010)Scorpions/Sting In The Tail [FLAC (tracks+cue), lossless]
  • (2008) Pink / Funhouse (Pop) [FLAC (tracks) lossless]
  • (Дискография) GORILLAZ (Trip-Hop) [FLAC (tracks + .cue) lossless]
  • (2010) Ассаи / Лифт (Rap) [FLAC(image+.cue), lossless]
  • (1989) Ludwig van Beethoven - Все симфонии / All Symphonies [6CD] (classica ...
  • (2010) Баста и Гуф / Баста / Гуф (Rap) [FLAC (tracks+.cue) lossless]
  • (1968) Ten Years After / Undead (Rock / Blues / Blues Rock) [Flac (tracks+. ...
  • (2006) Великие Композиторы / Жизнь и Творчество - Шопен (Classical) [Flac(t ...
  • (2006) Великие Композиторы / Жизнь и Творчество - Бетховен (Classical) [Fla ...
  • (2001) Bloodthorn / Under the Reign of Terror (Black/Death Metal) [Flac(tra ...
  • (2009) Koan / When The Silence Is Speaking (Ambient, Downtempo, Chillout) [ ...
  • (2012) Katie Melua / Secret Symphony (Jazz Pop, Vocal Jazz) [FLAC (tracks+. ...
  • (2007, 60xCD Box Set + Booklet) Beethoven / Complete Masterpieces (Classica ...
  • (2010) Rihanna / Loud (R&B) [FLAC (tracks+.cue), lossless]
  • (2003) DJ Zinc / Faster (DnB, Breaks) [ FLAC (tracks+.cue), lossless]
  • [2009] Muse / The Resistance (Alternative / Indie) [FLAC, lossless]
  • (2010) Кукрыниксы / Всадники Света (Punk Rock) [FLAC (tracks+.cue), lossles ...
  • (2011) Metallica / Beyond Magnetic (Thrash Metal) [FLAC (image+.cue), lossl ...
  • (2012) Оргия Праведников / Шитрок (Rock/Progressive Rock) [FLAC (tracks+cue ...
  • Информация
    Посетители, находящиеся в группе Гости, не могут оставлять комментарии к данной публикации.