вход на сайт

Имя пользователя :
Пароль :

Восстановление пароля Регистрация
(2012) Jim Brickman / Love (2010) (Piano, Instrumental, New Age) [FLAC (image+.cue), lossless]
Рейтинг:
(голосов: 1)



[img]{THEME}/images/logopost.png[/img]




Исполнитель: Jim Brickman
Альбом: Love
Страна: USA
Тип альбома: Студийный
Год выпуска: 2012
Год первоначального издания альбома: 2010
Жанр: Piano, Instrumental, New Age
Страна (Издатель, Каталожный номер): Singapore (Premium Records (Top2Music), PR 27959)
Аудиокодек: FLAC (*.flac)
Тип рипа: image+.cue
Битрейт: lossless
Наличие сканов в содержимом раздачи: да (600 dpi, *jpg)
Продолжительность: 00:55:33

Описание : Set a romantic mood with this collection of classic love songs performed by award-winning pianist Jim Brickman.
Includes thirteen brand new solo piano recordings and the original version of the Brickman fan-favourite, Valentine, featuring Martina McBride.

Tреклист:
01. Have I Told You Lately (Jim Brickman) - (04:07)
02. I Will Always Love You (Jim Brickman) - (04:45)
03. Your Smile (Jim Brickman) - (03:26)
04. Dont Know Why (Jim Brickman) - (03:24)
05. (Everything I Do) I Do It For You (Jim Brickman) - (04:31)
06. Wonderful Tonight (Jim Brickman) - (04:20)
07. Longing For You (Jim Brickman) - (03:36)
08. Your Song (Jim Brickman) - (03:58)
09. My Heart Will Go On (Jim Brickman) - (03:52)
10. Amazed (Jim Brickman) - (04:31)
11. I Swear (Jim Brickman) - (04:07)
12. How Do I Live Without You (Jim Brickman) - (04:24)
13. Unchained Melody (Jim Brickman) - (03:18)
14. Valentine (featuring. Martina McBride) (Jim Brickman) - (03:15)


Лог создания рипа ▼TextExact Audio Copy V1.0 beta 1 from 15. November 2010

EAC extraction logfile from 28. November 2012, 22:05

Jim Brickman / Love

Used drive : PIONEER DVD-RW DVR-118L Adapter: 4 ID: 0

Read mode : Secure
Utilize accurate stream : Yes
Defeat audio cache : Yes
Make use of C2 pointers : No

Read offset correction : 6
Overread into Lead-In and Lead-Out : No
Fill up missing offset samples with silence : Yes
Delete leading and trailing silent blocks : No
Null samples used in CRC calculations : Yes
Used interface : Native Win32 interface for Win NT & 2000

Used output format : Internal WAV Routines
Sample format : 44.100 Hz; 16 Bit; Stereo


TOC of the extracted CD

Track | Start | Length | Start sector | End sector
---------------------------------------------------------
1 | 0:00.00 | 4:06.49 | 0 | 18498
2 | 4:06.49 | 4:44.38 | 18499 | 39836
3 | 8:51.12 | 3:26.01 | 39837 | 55287
4 | 12:17.13 | 3:24.19 | 55288 | 70606
5 | 15:41.32 | 4:31.11 | 70607 | 90942
6 | 20:12.43 | 4:20.10 | 90943 | 110452
7 | 24:32.53 | 3:35.73 | 110453 | 126650
8 | 28:08.51 | 3:58.15 | 126651 | 144515
9 | 32:06.66 | 3:51.71 | 144516 | 161911
10 | 35:58.62 |
2fe6a8c5fd8755b7d3b57ac33c155a71a04c4d71(2012) Jim Brickman / Love (2010) (Piano, Instrumental, New Age) [FLAC (image+.cue), lossless] (2012) Jim Brickman / Love (2010) (Piano, Instrumental, New Age) [FLAC (image+.cue), lossless] " />

Аплоадер: Админ, дата: 12-01-2013, 23:10, торрент скачан: 359 раз

Понравилась раздача? Посмотрите эти:
  • (1996) George Michael / Older (1st Press Japan) (Electronic, Pop/Rock) [FLA ...
  • (2013) Мумий Тролль / SOS Матросу - 2013, (Rock) [FLAC (image+.cue), lossle ...
  • (2008) Ella Fitzgerald & Louis Armstrong / Autumn In New York (Vocal Jazz) ...
  • (2013) Richard Clayderman / Romantique (Easy Listening, Instrumental, Class ...
  • (2012) Matt Bianco / Hideaway (Japan CD) (Smooth Jazz, Fusion, Latin-Pop) [ ...
  • (2012, сборник) VA / Piano Compilation by red_devil (Piano Solo, Instrument ...
  • (2010) Michael Jackson - Michael (Pop) [FLAC, (tracks+.cue), lossless]
  • (Студийная дискография) Jon (Anderson) & Vangelis - 4 альбома (Electronic P ...
  • (2007) Fausto Papetti / Papetti Gold (Instrumental, Easy Listening) [FLAC ( ...
  • (Дискография, 1998-2005) Jeanette Alexander (Instrumental, New Age, Piano S ...
  • (2012) Yiruma / Stay In Memory (New Age, Instrumental, Neoclassical, Piano) ...
  • (2012) Christina Aguilera / The Best (Unofficial) (Pop) [FLAC (image+.cue), ...
  • (2008, Сборник) VA / Relax Piano - Yesterday - Trai Tim Mua Thu - Vol.7 (Ne ...
  • (2012) Omar Akram / Echoes Of Love (New Age, Instrumental, Piano) [FLAC (tr ...
  • (2011) Sam Levine / Smooth Sax Romance (Smooth Jazz) [FLAC (image+.cue), lo ...
  • (2004) Игорь Малинин / От Штирлица до Путина (Pop) [FLAC (image+.cue), los ...
  • (2012) The Piano Guys / The Piano Guys (Contemporary Classic, Instrumental, ...
  • (2012) Marc Enfroy / Dreams Of The Forest (New Age, Instrumental, Cinematic ...
  • (1993) Крис Кельми / Greatest Hits (Pop-Rock) [FLAC (image+.cue), lossless] ...
  • (2012) Jeff Kollman / Silence In The Corridor (Guitar Rock, Instrumental Ro ...
  • (2011) Yanni / Truth Of Touch (New Age) [FLAC (image+ .cue),lossless]
  • (2011) Стас Михайлов / Только ты (Шансон) [Flac(image+.cue)Lossless]
  • (2011) Metallica / Beyond Magnetic (Thrash Metal) [FLAC (image+.cue), lossl ...
  • (2011) Lou Reed & Metallica / Lulu (Heavy Metal, Hard Rock) [FLAC (image+.c ...
  • (2012, Сборник) VA / Piano compilation vol.1 by TrueMan(Piano/Instrumentals ...
  • Информация
    Посетители, находящиеся в группе Гости, не могут оставлять комментарии к данной публикации.