вход на сайт

Имя пользователя :
Пароль :

Восстановление пароля Регистрация
(2012) Marc Enfroy / Dreams Of The Forest (New Age, Instrumental, Cinematic Piano) [FLAC (tracks+.cue), lossless]
Рейтинг:
(голосов: 1)



[img]{THEME}/images/logopost.png[/img]




Исполнитель : Marc Enfroy
Альбом : Dreams Of The Forest
Тип альбома :Студийный
Год выпуска : June 12, 2012
Жанр : New Age, Instrumental, Cinematic Piano
Издатель (Каталожный номер) : Dream Score Music (BMI), DSM 0612
Аудиокодек : FLAC (*.flac)
Тип рипа : tracks+.cue
Битрейт : lossless
Наличие сканов в содержимом раздачи : да (300 dpi, JPEG (.jpg))
Продолжительность : 00:55:10

Описание : Award-winning composer, Marc Enfroy, carries you away to a timeless woodland of beauty, innocence and inspiration in this album of heartfelt instrumental piano music. Relax your mind and free your imagination as Marcs gentle piano is accompanied by lush arrangements of cinematic strings, enchanting choirs, sweet woodwinds and magical bells. Your dreams await!

Tреклист:
01. The Forest Awakens (Marc Enfroy) - (4:12)
02. Waiting for Sunrise (Marc Enfroy) - (4:10)
03. Miracle in the Glade (Marc Enfroy) - (3:37)
04. Woodland Waltz (Marc Enfroy) - (4:06)
05. Nocturne (Marc Enfroy) - (3:19)
06. Fireflies (Marc Enfroy) - (4:33)
07. Goodbye Summer (Marc Enfroy) - (4:16)
08. Reaching for the Sky (Marc Enfroy) - (4:03)
09. Pines in the Mist (Marc Enfroy) - (4:12)
10. After the Rain (Marc Enfroy) - (3:36)
11. In the Still Air (Marc Enfroy) - (2:00)
12. The Return of Spring (Marc Enfroy) - (4:41)
13. Fawns First Leap (Marc Enfroy) - (5:09)
14. Postlude (Marc Enfroy) - (3:17)

Лог создания рипа ▼TextExact Audio Copy V1.0 beta 1 from 15. November 2010

EAC extraction logfile from 29. August 2012, 21:42

Marc Enfroy / Dreams of the Forest

Used drive : Optiarc DVD RW AD-7243S Adapter: 3 ID: 1

Read mode : Secure
Utilize accurate stream : Yes
Defeat audio cache : Yes
Make use of C2 pointers : No

Read offset correction : 48
Overread into Lead-In and Lead-Out : No
Fill up missing offset samples with silence : Yes
Delete leading and trailing silent blocks : No
Null samples used in CRC calculations : Yes
Used interface : Native Win32 interface for Win NT & 2000
Gap handling : Appended to previous track

Used output format : User Defined Encoder
Selected bitrate : 896 kBit/s
Quality : High
Add ID3 tag : No
Command line compressor : C:Program Files (x86)Exact Audio CopyFLACFLAC.EXE
Additional command line options : -6 -V -T "ARTIST=%a" -T "TITLE=%t" -T "ALBUM=%g" -T "DATE=%y" -T "TRACKNUMBER=%n" -T "GENRE=%m" -T "COMMENT=%e" %j--picture="%i"%j %s -o %d


TOC of the extracted CD

Track | Start | Length | Start sector | End sector
---------------------------------------------------------
1 | 0:00.00 | 4:11.40 | 0 | 18864
2 | 4:11.40 | 4:09.47 | 18865 | 37586
3 | 8:21.12 | 3:37.32 | 37587 | 53893
4 | 11:58.44 | 4:05.54 | &nb
7bcfd0a6755523574c2bf8ff52f83446fe7b9058(2012) Marc Enfroy / Dreams Of The Forest (New Age, Instrumental, Cinematic Piano) [FLAC (tracks+.cue), lossless] (2012) Marc Enfroy / Dreams Of The Forest (New Age, Instrumental, Cinematic Piano) [FLAC (tracks+.cue), lossless] " />

Аплоадер: Админ, дата: 6-01-2013, 10:06, торрент скачан: 359 раз

Понравилась раздача? Посмотрите эти:
  • (2013) Hans Zimmer / Человек из стали / Man Of Steel [Deluxe Edition] (2 CD ...
  • (2010) Clean Tears / Innerve (Techno, Vocaloid) [FLAC (tracks+.cue), lossle ...
  • (2013) Richard Clayderman / Romantique (Easy Listening, Instrumental, Class ...
  • (2010) Zaz / Zaz (Nu jazz, Chanson, Soul) [FLAC (tracks+.cue), lossless]
  • (2011) Виктория - победительница / Victorious (OST) [FLAC (tracks+.cue), lo ...
  • (2011) B.B. King / Icon (Blues) [FLAC (tracks+.cue), lossless]
  • (Дискография, 1998-2005) Jeanette Alexander (Instrumental, New Age, Piano S ...
  • (2012) Yiruma / Stay In Memory (New Age, Instrumental, Neoclassical, Piano) ...
  • (2012) Paul Van Dyk / Evolution (Progressive House, Trance) [FLAC (tracks+. ...
  • (2012) Marconi Union / Different Colours (Post Rock, Downtempo, Ambient) [F ...
  • (2012, Сборник) VA / Saxophone Golden Best (Jazz, Smooth Jazz) [FLAC (track ...
  • (2008, Сборник) VA / Relax Piano - Yesterday - Trai Tim Mua Thu - Vol.7 (Ne ...
  • (2012) Omar Akram / Echoes Of Love (New Age, Instrumental, Piano) [FLAC (tr ...
  • (2012) Tomandandy / Resident Evil: Retribution (Score, Soundtrack)[FLAC (tr ...
  • (2012) Sally Night / Love For Sale (Vocal Jazz) [FLAC (tracks+.cue), lossle ...
  • (2012) The Piano Guys / The Piano Guys (Contemporary Classic, Instrumental, ...
  • (2012) Marc Streitenfeld, Harry Gregson-Williams, Jerry Goldsmith / Prometh ...
  • (1996) The Rasmus / Peep (Finnish Version) (Alternative Rock) [FLAC (tracks ...
  • (2011) Дельфин / Существо (Alternative|Experimental) [FLAC (tracks+.cue), l ...
  • (2011) Ленинград / Хна (Rock) [FLAC (tracks+.cue), lossless]
  • (2012) Nightwish / The Crow, The Owl And The Dove (Sympho-Power Metal) [FLA ...
  • (2011) SeeS / The enD (Progressive/Math Metal) [FLAC (tracks+.cue), lossles ...
  • (2012) Our Lady Peace / Curve (Alternative/Rock) [FLAC (tracks+.cue), lossl ...
  • (2011) Phinehas / Thegodmachine (Metalcore) [FLAC (tracks+.cue), lossless]
  • (2012) For Today / Immortal (Metalcore, Hardcore, Christian) [FLAC (tracks+ ...
  • Информация
    Посетители, находящиеся в группе Гости, не могут оставлять комментарии к данной публикации.