вход на сайт

Имя пользователя :
Пароль :

Восстановление пароля Регистрация
(2012, Сборник) VA / Oriental Rocking Beats: Exotic Club & Chillout Grooves (2 CD) (Pop, Dance) [FLAC (tracks+.cue), lossless]
Рейтинг:
(голосов: 1)



[img]{THEME}/images/logopost.png[/img]



Сборник
Исполнитель:Various Artists
Название сборника:Oriental Rocking Beats: Exotic Club & Chillout Grooves (2 CD)
Год выпуска:2012
Жанр:Chillout, Lounge, Downtempo, Electronic
Страна (Издатель, Каталожный номер): UAE (EMI Music Arabia, 5099945452924)
Аудиокодек: FLAC (*.flac)
Тип рипа: tracks+.cue
Битрейт: lossless
Лог файл: присутствуют
Наличие сканов в содержимом раздачи: Есть
Продолжительность: 02:25:28


СD1 (FLAC (tracks+.cue)) ▼
Продолжительность:01:09:49

Tреклист:
01. Gorillaz feat. Bashy, Kano & The Ntional Orchestra For Arabic Music - White Flag (3:44)
02. The Chemical Brothers - Galvanize (6:33)
03. Malik Adouane - Shaft (3:17)
04. Amr Diabfeat. Cheb Khaled - Albey (4:23)
05. Cheb Rayan feat. Jalel Hamdaoui - Golou lmama (4:01)
06. Natacha Atlas - Yallah Chant (Edit) (3:05)
07. David Bowie - Lets Dance (Club Bolly Extended Mix) (7:57)
08. The R.E.G Project - Harem (3:24)
09. Thievery Corporation - Illumination (4:30)
10. Prem Joshua - Shiva Moon (Moon Nectar Remix) (6:38)
11. Angela Dimitriou - Magarites (Said Mrad Club Edit) (4:01)
12. Eastenders - Sex And Cookies (3:33)
13. Elie Attieh - Inta Omri (Electro Mix) (4:29)
14. Said Mrad - One Thousand & One Nights (alf Leyla Wlayla) (Remix) (5:44)
15. Beirut Biloma - I Wanna Dance In Beirut (Said Mrad Remix) (4:32)

Лог создания рипа ▼Text
Exact Audio Copy V1.0 beta 1 from 15. November 2010

EAC extraction logfile from 19. November 2012, 19:58

Various Artists / CD1 - Oriental Rocking Beats Exotic Club & Chillout Grooves

Used drive : ASUS DRW-24B3ST Adapter: 1 ID: 2

Read mode : Secure
Utilize accurate stream : Yes
Defeat audio cache : Yes
Make use of C2 pointers : No

Read offset correction : 6
Overread into Lead-In and Lead-Out : No
Fill up missing offset samples with silence : Yes
Delete leading and trailing silent blocks : No
Null samples used in CRC calculations : Yes
Used interface : Native Win32 interface for Win NT & 2000
Gap handling : Appended to previous track

Used output format : User Defined Encoder
Selected bitrate : 896 kBit/s
Quality : High
Add ID3 tag : No
Command line compressor : C:Program Files (x86)Exact Audio CopyFlacflac.exe
Additional command line options : -8 -V -T "ARTIST=%a" -T "TITLE=%t" -T "ALBUM=%g" -T "DATE=%y" -T "TRACKNUMBER=%n" -T "GENRE=%m" -T "COMMENT=ripped by Oleandris" %s


TOC of the extracted CD

Track | Start | Length | Start sector | End sector
---------------------------------------------------------
1 | 0:00.00 | 3:43.69 | 0 | 16793
2 | 3:43.69 | 6:32.70 | 16794 | 46263
3 | 10:16.64 | 3:17.16 | 46264 | 61054
&nbs
e7cdc59bf77a406f198ff6b72cbad01a3b87f2c9(2012, Сборник) VA / Oriental Rocking Beats: Exotic Club & Chillout Grooves (2 CD) (Pop, Dance) [FLAC (tracks+.cue), lossless] (2012, Сборник) VA / Oriental Rocking Beats: Exotic Club & Chillout Grooves (2 CD) (Pop, Dance) [FLAC (tracks+.cue), lossless] " />

Аплоадер: Админ, дата: 6-12-2012, 15:47, торрент скачан: 359 раз

Понравилась раздача? Посмотрите эти:
  • (2012) Lazlo / Lazlo (Electro Swing, Nu Jazz, Electronic) [FLAC (tracks+.cu ...
  • (2012, Сборник) VA / Chill Lounge Del Mar vol.2 (2xCD) (Lounge, Chillout) [ ...
  • (2012, Сборник) VA / Ambient Lounge 15 (Limited Edition) perfect music for ...
  • (2012, Сборник) VA / Vintage Cafe 1,2 (4xCD) (Lounge, Lo-Fi, Jazz Blends) [ ...
  • (2002, Сборник) VA / Chill Out Edition (2xCD) (Lounge, Chillout, Downtempo, ...
  • (2012, Сборник) VA / Bar Lounge Deluxe: The Greatest Midnight Jazz Classics ...
  • (2012) Signum / Remixed (Trance) [FLAC (tracks+.cue), Lossless]
  • (2010) Zaz / Zaz (Nu jazz, Chanson, Soul) [FLAC (tracks+.cue), lossless]
  • (2002) PPK (ППК) / ReLoad. Russian Trance (Trance) [FLAC (tracks+cue), loss ...
  • (2011) Виктория - победительница / Victorious (OST) [FLAC (tracks+.cue), lo ...
  • (2011) B.B. King / Icon (Blues) [FLAC (tracks+.cue), lossless]
  • (2012) Marconi Union / Different Colours (Post Rock, Downtempo, Ambient) [F ...
  • (2012, Сборник) VA / The Best Of Lounge 4 (Lounge, Chillout, Jazzy, Downtem ...
  • (2012, Сборник) VA / Saxophone Golden Best (Jazz, Smooth Jazz) [FLAC (track ...
  • (2008, Сборник) VA / Relax Piano - Yesterday - Trai Tim Mua Thu - Vol.7 (Ne ...
  • (2000) Bomfunk MCs / In Stereo (Special 2CD Edition) (Electro, Hip-Hop, Fun ...
  • (2012) Tomandandy / Resident Evil: Retribution (Score, Soundtrack)[FLAC (tr ...
  • (2012, Сборник) VA / Now Thats What I Call Music! 83 (2 CD) (Pop, Dance) [F ...
  • (2012, Сборник) VA / Ambient Lounge 14 (2 CD) (Limited Edition) (Lounge, Ch ...
  • (1996) The Rasmus / Peep (Finnish Version) (Alternative Rock) [FLAC (tracks ...
  • (2011) Ленинград / Хна (Rock) [FLAC (tracks+.cue), lossless]
  • (2011) SeeS / The enD (Progressive/Math Metal) [FLAC (tracks+.cue), lossles ...
  • (2012) Our Lady Peace / Curve (Alternative/Rock) [FLAC (tracks+.cue), lossl ...
  • (2011) Phinehas / Thegodmachine (Metalcore) [FLAC (tracks+.cue), lossless]
  • (2012) Schiller / Sonne (3 CD) (Limited Ultra Deluxe Edition) (Ambient/Chil ...
  • Информация
    Посетители, находящиеся в группе Гости, не могут оставлять комментарии к данной публикации.