вход на сайт

Имя пользователя :
Пароль :

Восстановление пароля Регистрация
(2011, Сборник) VA / Lady Lounge (Chillout, Lounge, Downtempo) [FLAC (image+.cue), lossless]
Рейтинг:
(голосов: 1)



[img]{THEME}/images/logopost.png[/img]




Сборник
Исполнитель:Various Artists
Название сборника:Lady Lounge
Год выпуска: September 13, 2011
Жанр: Chillout, Lounge, Downtempo
Страна (Издатель): Holland (Cloud9Music, Cloud 9 Holland, CLDM2011073)
Аудиокодек: FLAC (*.flac)
Тип рипа: image+.cue
Битрейт: lossless
Наличие сканов в содержимом раздачи: да (96 dpi, *.jpg)
Продолжительность: 01:51:02

Об исполнителе (об издании):
Cloud9Music подарил любителям красивой музыки уникальный сборник, в котором представлены лучшие треки в стиле вокальный лаунж / поп-лаунж. В данном диске собраны одни из лучших треков данного жанра, вышедших в последнее время. Еще одна отличительная деталь релиза – во всех произведениях вокал женский, именно поэтому диск называется Lady Lounge. Нежный женский голос придает произведениям еще больше красоты, мелодичности. Музыка диска – 12 роскошных треков, идеально подходящих для дорогой коктейльной вечеринки, романтического вечера вдвоем, и даже для прослушивания в машине.

Tреклист:
01. Move Closer (Do) - (05:35)
02. Just Say Yes (Birgit Schuurman) - (06:49)
03. Im In Love (Krystl) - (03:19)
04. Hedonism (Sabrina Starke) - (05:13)
05. Angel Eyes (Belle Perez) - (05:34)
06. Crazy (Pearl Jozefzoon) - (06:05)
07. Its The First Time (Lois Lane) - (06:03)
08. Rude Boy (Shary-An) - (05:01)
09. Heart Of Glass (Twarres) - (04:52)
10. I Dont Want To Talk About It (Carolina Dijkhuizen) - (05:15)
11. Message In A Bottle (Leonie Meijer) - (05:08)
12. Imagine (Undressed Version) (Jennifer Ewbank) - (03:25)


Лог создания рипа ▼TextExact Audio Copy V0.99 prebeta 5 from 4. May 2009

EAC extraction logfile from 15. August 2012, 20:43

Various / Lady Lounge

Used drive : TSSTcorpCDDVDW TS-L633C Adapter: 1 ID: 0

Read mode : Secure
Utilize accurate stream : Yes
Defeat audio cache : Yes
Make use of C2 pointers : No

Read offset correction : 6
Overread into Lead-In and Lead-Out : No
Fill up missing offset samples with silence : Yes
Delete leading and trailing silent blocks : No
Null samples used in CRC calculations : Yes
Used interface : Native Win32 interface for Win NT & 2000

Used output format : User Defined Encoder
Selected bitrate : 768 kBit/s
Quality : High
Add ID3 tag : No
Command line compressor : C:Program Files (x86)Exact Audio CopyFlacflac.exe
Additional command line options : -8 -V %s


TOC of the extracted CD

Track | Start | Length | Start sector | End sector
---------------------------------------------------------
1 | 0:00.00 | 5:34.67 | 0 | 25116
2 | 5:34.67 | 6:48.44 | 25117 | 55760
3 | 12:23.36 | 3:19.09 | 55761 | 70694
4 | 15:42.45 | 5:13.13 | 70695 | 94182
5 | 20:55.58 | 5:33.58 | 94183 | 119215
&nbs
1f2df733f41cc23c0de28bcd0bfaee2c8ee70e96(2011, Сборник) VA / Lady Lounge (Chillout, Lounge, Downtempo) [FLAC (image+.cue), lossless] (2011, Сборник) VA / Lady Lounge (Chillout, Lounge, Downtempo) [FLAC (image+.cue), lossless] " />

Аплоадер: Админ, дата: 15-10-2012, 13:07, торрент скачан: 359 раз

Понравилась раздача? Посмотрите эти:
  • (2013, Сборник) VA / La Nuit (Rare Lounge & Chilled House Grooves) Vol.6 (2 ...
  • (2012, Сборник) VA / Chill Lounge Del Mar vol.2 (2xCD) (Lounge, Chillout) [ ...
  • (2012, Сборник) VA / Ambient Lounge 15 (Limited Edition) perfect music for ...
  • (2012, Сборник) VA / Vintage Cafe 1,2 (4xCD) (Lounge, Lo-Fi, Jazz Blends) [ ...
  • (2002, Сборник) VA / Chill Out Edition (2xCD) (Lounge, Chillout, Downtempo, ...
  • (2012, Сборник) VA / Bar Lounge Deluxe: The Greatest Midnight Jazz Classics ...
  • (2012, Сборник) VA / The Best Of Lounge 5 - The Ultimate Lounge Experience ...
  • (2009, сборник) VA / Christmas Chill Out Lounge (Chillout) [FLAC (image + . ...
  • (2010) Ассаи / Лифт (Rap) [FLAC(image+.cue), lossless]
  • (2011) Adele / 21 (Jazz, Lounge, Easy Listening) [FLAC (tracks + .cue), los ...
  • (2009) Koan / When The Silence Is Speaking (Ambient, Downtempo, Chillout) [ ...
  • (2012) Christina Aguilera / The Best (Unofficial) (Pop) [FLAC (image+.cue), ...
  • (2012, Сборник) VA / The Best Of Lounge 4 (Lounge, Chillout, Jazzy, Downtem ...
  • (2012, Сборник) VA / Cafe Del Mar XVIII (2CD) (Lounge) [FLAC (tracks+.cue), ...
  • (2012, Сборник) VA / Vintage Lounge (2 CD) (Lounge, Downtempo, Lo-Fi) [FLA ...
  • (2011) Sam Levine / Smooth Sax Romance (Smooth Jazz) [FLAC (image+.cue), lo ...
  • (2012, Сборник) VA / Oriental Rocking Beats: Exotic Club & Chillout Grooves ...
  • (2012, Сборник) VA / Ambient Lounge 14 (2 CD) (Limited Edition) (Lounge, Ch ...
  • (1976) The Eagles / Hotel California [Japan Remastered] (Country Rock) [FLA ...
  • (2010) Morcheeba / Blood Like Lemonade ( Electronic, Downtempo, Pop, Trip-h ...
  • (2009) Чиж & Co / Лучшее. Золотая коллекция (Rock) [FLAC (image+.cue), loss ...
  • (2011) Слот / F5 (Alternative Metal) [FLAC (image+.cue)lossless]
  • (2011) Слот / Break The Code (Alternative Metal) [FLAC (image+.cue)lossless ...
  • (2009) Mystica / Second Dive (Trance, Ambient & Downtempo, Chill Out) [FLAC ...
  • (2011) Gorillaz - The Singles Collection 2001-2011 (Alternative / Hip-Hop / ...
  • Информация
    Посетители, находящиеся в группе Гости, не могут оставлять комментарии к данной публикации.