вход на сайт

Имя пользователя :
Пароль :

Восстановление пароля Регистрация
(2012) Yanni / Live at El Morro, Puerto Rico (New Age) [FLAC (image+.cue), lossless]
Рейтинг:
(голосов: 1)



[img]{THEME}/images/logopost.png[/img]



Исполнитель: Yanni
Страна: Greece, USA
Альбом: Live at El Morro, Puerto Rico
Тип альбома: Live
Год выпуска: 2012
Жанр: New Age
Страна (Издатель, Каталожный номер): European Union (Sony Music, 88691952852)
Аудиокодек: FLAC
Тип рипа: image+.cue
Битрейт: lossless
Log-файл: Присутствует.
Наличие сканов в содержимом раздачи: Да. (PNG, 300DPI, 429MB)
Продолжительность: 00:51:22

Описание: Янни Хрисомаллис — основатель музыкальной группы «Yanni», исполняющей музыку в инструментальном стиле.

Состав:
Хрисомаллис Янни (пианист)
Самвел Ервинян и Армен Мовсесян (скрипачи)
Педро Эустачe (духовые инструменты)
Виктор Эспинола (арфа)
Саяка Катсуки (скрипачка)

Tреклист:
[04:23] 01. Yanni - Truth of Touch
[04:21] 02. Yanni - Vertigo
[05:07] 03. Yanni - The End Of August
[08:11] 04. Yanni - The Rain Must Fall
[04:43] 05. Yanni - Felitsa
[04:13] 06. Yanni - Voyage
[05:17] 07. Yanni - Nightingale
[04:05] 08. Yanni - Ode to Humanity
[07:49] 09. Yanni - Niki Nana
[03:09] 10. Yanni - One Mans Dream

Лог создания рипа ▼TextExact Audio Copy V1.0 beta 3 from 29. August 2011

EAC extraction logfile from 2. July 2012, 19:55

Yanni / Yanni - Live at El Morro, Puerto Rico

Used drive : ASUS DRW-24B5ST Adapter: 0 ID: 2

Read mode : Secure
Utilize accurate stream : Yes
Defeat audio cache : Yes
Make use of C2 pointers : No

Read offset correction : 6
Overread into Lead-In and Lead-Out : No
Fill up missing offset samples with silence : Yes
Delete leading and trailing silent blocks : No
Null samples used in CRC calculations : Yes
Used interface : Native Win32 interface for Win NT & 2000

Used output format : User Defined Encoder
Selected bitrate : 1024 kBit/s
Quality : High
Add ID3 tag : No
Command line compressor : C:Program FilesFLACflac.exe
Additional command line options : -8 -V -T "ARTIST=%artist%" -T "TITLE=%title%" -T "ALBUM=%albumtitle%" -T "DATE=%year%" -T "TRACKNUMBER=%tracknr%" -T "GENRE=%genre%" -T "PERFORMER=%albuminterpret%" -T "COMPOSER=%composer%" %haslyrics%--tag-from-file=LYRICS="%lyricsfile%"%haslyrics% -T "ALBUMARTIST=%albumartist%" -T "DISCNUMBER=%cdnumber%" -T "TOTALDISCS=%totalcds%" -T "TOTALTRACKS=%numtracks%" -T "COMMENT=%comment%" %source% -o %dest%

TOC of the extracted CD

Track | Start | Length | Start sector | End sector
---------------------------------------------------------
1 | 0:00.00 | 4:23.36 | 0 | 19760
2 | 4:23.36 | 4:21.11 | 19761 | 39346
3 | 8:44.47 | 5:07.25 | 39347 | 62396
4 | 13:51.72 | 8:11.46 | 62397 | 99267
5 | 22:03.43 | 4:43.53 | 99268 | 120545
6 | 26:47.21 | 4:13.66
a7c2da0ff63230732ae855729ceae94d2d95484b(2012) Yanni / Live at El Morro, Puerto Rico (New Age) [FLAC (image+.cue), lossless] (2012) Yanni / Live at El Morro, Puerto Rico (New Age) [FLAC (image+.cue), lossless] " />

Аплоадер: Админ, дата: 16-07-2012, 18:38, торрент скачан: 359 раз

Понравилась раздача? Посмотрите эти:
  • (2013) Buddy Guy / Rhythm & Blues (2CD) (Blues) [FLAC (image+.cue), Lossles ...
  • (2013) Leslie West / Still Climbing (Rock, Hard Rock, Blues Rock) [FLAC (im ...
  • (2013) Paul McCartney / New (Deluxe Edition) (Rock) [FLAC (image,+.cue), lo ...
  • (2013) Elton John / The Diving Board (Rock, Pop Rock) [FLAC (image+.cue), L ...
  • (2013) Govt Mule / Shout! (2CD) (Blues Rock) [FLAC (image+.cue), Lossless]
  • (2013) Prodigy & The Alchemist / Albert Einstein (Underground Hip-Hop) [FLA ...
  • (2013) Fall Out Boy / Save Rock and Roll (Pop-Punk) [ALAC (tracks), lossles ...
  • (2013) A$AP Rocky | Long. Live. ASAP (Deluxe Edition) (Rap|Hip-Hop) [FLAC ( ...
  • (2012) Lazlo / Lazlo (Electro Swing, Nu Jazz, Electronic) [FLAC (tracks+.cu ...
  • (2010) Clean Tears / Innerve (Techno, Vocaloid) [FLAC (tracks+.cue), lossle ...
  • (2011) Linkin Park / LP Underground 11 (Alternative Rock) [FLAC (Image+cue) ...
  • (2012) Katie Melua / Secret Symphony (Jazz Pop, Vocal Jazz) [FLAC (tracks+. ...
  • (2012) Paul Van Dyk / Evolution (Progressive House, Trance) [FLAC (tracks+. ...
  • (2012) Marconi Union / Different Colours (Post Rock, Downtempo, Ambient) [F ...
  • (2008, Сборник) VA / Relax Piano - Yesterday - Trai Tim Mua Thu - Vol.7 (Ne ...
  • (2012) Tomandandy / Resident Evil: Retribution (Score, Soundtrack)[FLAC (tr ...
  • (2012) Sally Night / Love For Sale (Vocal Jazz) [FLAC (tracks+.cue), lossle ...
  • (1996) The Rasmus / Peep (Finnish Version) (Alternative Rock) [FLAC (tracks ...
  • (2011) Mistabishi / Trip (Drum & Bass, Breakbeat) [FLAC (tracks+.cue), loss ...
  • (2012) Buckethead / Electric Sea (Experimental/Acoustic/Ambient/Rock) [FLAC ...
  • (2012) Les Friction / Les Friction (Alt. Rock/Neo-Classical/Orchestral) [FL ...
  • (2011) SeeS / The enD (Progressive/Math Metal) [FLAC (tracks+.cue), lossles ...
  • (2012) Our Lady Peace / Curve (Alternative/Rock) [FLAC (tracks+.cue), lossl ...
  • (2012) Nine Lashes / World We View (Alt.Rock/Alt.Metal/Christian) [FLAC (tr ...
  • (2012) For Today / Immortal (Metalcore, Hardcore, Christian) [FLAC (tracks+ ...
  • Информация
    Посетители, находящиеся в группе Гости, не могут оставлять комментарии к данной публикации.