вход на сайт

Имя пользователя :
Пароль :

Восстановление пароля Регистрация
(2012) Omar Akram / Echoes Of Love (New Age, Instrumental, Piano) [FLAC (tracks+.cue), lossless]
Рейтинг:
(голосов: 1)



[img]{THEME}/images/logopost.png[/img]



Исполнитель: Omar Akram
Страна: USA
Альбом: Echoes Of Love
Тип альбома: Студийный
Год выпуска: 2012
Жанр: New Age, Instrumental, Piano
Страна (Издатель, Каталожный номер): USA (Real Music, RM7444)
Аудиокодек: FLAC
Тип рипа: tracks+.cue
Битрейт: lossless
Log-файл: Присутствует.
Наличие сканов в содержимом раздачи: Да. (JPG, 300DPI, 6,45MB)
Продолжительность: 00:48:50

Описание: Афганец по происхождению, Омар Акрам родился и вырос в Нью-Йорке – его отец был дипломатом и представлял свою страну в ООН. В силу специфики профессии отца Омар подолгу жил в самых разных странах мира. Не самая обычная биография дала этому человеку уникальный опыт – ему одинаково близки и понятны мир Запада и мир Востока. Этот опыт Омар старается воплощать в музыке. “Я стремлюсь делать музыку мульти-культурной, не привязанной к какой-то определенной стране или культуре», — так излагает он свое творческое кредо.

Tреклист:
[04:46] 01. Omar Akram - Echoes of Love
[04:52] 02. Omar Akram - Take My Hand
[04:43] 03. Omar Akram - Lovely Day
[04:11] 04. Omar Akram - Miracle
[04:15] 05. Omar Akram - Finally Home
[03:48] 06. Omar Akram - Draw Me Close
[03:42] 07. Omar Akram - Free Spirit
[03:33] 08. Omar Akram - My Hope is You
[02:42] 09. Omar Akram - Rejoice
[04:41] 10. Omar Akram - Cry for Love
[04:56] 11. Omar Akram - Open Skies
[02:37] 12. Omar Akram - Merry

Лог создания рипа ▼TextExact Audio Copy V1.0 beta 1 from 15. November 2010

EAC extraction logfile from 7. May 2012, 19:33

Omar Akram / Echoes of Love

Used drive : Optiarc DVD RW AD-7243S Adapter: 3 ID: 1

Read mode : Secure
Utilize accurate stream : Yes
Defeat audio cache : Yes
Make use of C2 pointers : No

Read offset correction : 48
Overread into Lead-In and Lead-Out : No
Fill up missing offset samples with silence : Yes
Delete leading and trailing silent blocks : No
Null samples used in CRC calculations : Yes
Used interface : Native Win32 interface for Win NT & 2000
Gap handling : Appended to previous track

Used output format : User Defined Encoder
Selected bitrate : 896 kBit/s
Quality : High
Add ID3 tag : No
Command line compressor : C:Program Files (x86)Exact Audio CopyFLACFLAC.EXE
Additional command line options : -6 -V -T "ARTIST=%a" -T "TITLE=%t" -T "ALBUM=%g" -T "DATE=%y" -T "TRACKNUMBER=%n" -T "GENRE=%m" -T "COMMENT=%e" %j--picture="%i"%j %s -o %d

TOC of the extracted CD

Track | Start | Length | Start sector | End sector
---------------------------------------------------------
1 | 0:00.00 | 4:46.24 | 0 | 21473
2 | 4:46.24 | 4:52.61 | 21474 | 43434
3 | 9:39.10 | 4:43.65 | 43435 | 64724
4 | 14:23.00 | 4:11.30 | 64725 | 83579
e9c436d1e1b096ef31b427e7c89314eab10cefd0(2012) Omar Akram / Echoes Of Love (New Age, Instrumental, Piano) [FLAC (tracks+.cue), lossless] (2012) Omar Akram / Echoes Of Love (New Age, Instrumental, Piano) [FLAC (tracks+.cue), lossless] " />

Аплоадер: Админ, дата: 16-07-2012, 18:22, торрент скачан: 359 раз

Понравилась раздача? Посмотрите эти:
  • (2010) Clean Tears / Innerve (Techno, Vocaloid) [FLAC (tracks+.cue), lossle ...
  • (2010) Zaz / Zaz (Nu jazz, Chanson, Soul) [FLAC (tracks+.cue), lossless]
  • (2011) Виктория - победительница / Victorious (OST) [FLAC (tracks+.cue), lo ...
  • (2011) B.B. King / Icon (Blues) [FLAC (tracks+.cue), lossless]
  • (Дискография, 1998-2005) Jeanette Alexander (Instrumental, New Age, Piano S ...
  • (2012) Yiruma / Stay In Memory (New Age, Instrumental, Neoclassical, Piano) ...
  • (2012) Marconi Union / Different Colours (Post Rock, Downtempo, Ambient) [F ...
  • (2012, Сборник) VA / Saxophone Golden Best (Jazz, Smooth Jazz) [FLAC (track ...
  • (2008, Сборник) VA / Relax Piano - Yesterday - Trai Tim Mua Thu - Vol.7 (Ne ...
  • (2012) Tomandandy / Resident Evil: Retribution (Score, Soundtrack)[FLAC (tr ...
  • (2012) Sally Night / Love For Sale (Vocal Jazz) [FLAC (tracks+.cue), lossle ...
  • (2012) The Piano Guys / The Piano Guys (Contemporary Classic, Instrumental, ...
  • (2012) Marc Enfroy / Dreams Of The Forest (New Age, Instrumental, Cinematic ...
  • (1996) The Rasmus / Peep (Finnish Version) (Alternative Rock) [FLAC (tracks ...
  • (2011) VA / Fast & Furious 5 (Форсаж 5): Rio Heist (Soundtrack, OST) [FLAC ...
  • (2011) Ленинград / Хна (Rock) [FLAC (tracks+.cue), lossless]
  • (2011) SeeS / The enD (Progressive/Math Metal) [FLAC (tracks+.cue), lossles ...
  • (2011) Downhere / On The Altar Of Love (Alternative Rock/Christian Rock) [F ...
  • (2011) Phinehas / Thegodmachine (Metalcore) [FLAC (tracks+.cue), lossless]
  • (2012) Omar Akram / Echoes of Love (NewAge, Piano) [MP3, 320/CBR]
  • Информация
    Посетители, находящиеся в группе Гости, не могут оставлять комментарии к данной публикации.