вход на сайт

Имя пользователя :
Пароль :

Восстановление пароля Регистрация
(Сборник, 1990 - 2005) Enigma - Maxi Singles / 16 альбомов (Abstract, Ambient, NewAge) [APE (image + .cue), lossless]
Рейтинг:
(голосов: 1)



[img]{THEME}/images/logopost.png[/img]




Maxi Singles | 16 CDs + 2 CD-Extra
Исполнитель: Enigma
Издатель (лейбл):Virgin / EMI
Жанр: Abstract, Ambient, NewAge
Аудиокодек: APE (*.ape)
Тип рипа: image+.cue
Битрейт : lossless
Log-файл: Присутствует
Наличие сканов в содержимом раздачи: да (TIF, 300 dpi)
Продолжительность: 04:53:15

Об исполнителе: Enigma — музыкальный проект, созданный Мишелем Крету в 1990 году.
Композиции Enigma описываются как «музыкальные произведения, едва ли имеющие что-то общее с обычной музыкой и общепринятыми представлениями о ней» и «сравнительно новый коллаж звуков, ритма и чувств». Крету всё сильнее совмещает мировые музыкальные направления, сливая все треки в единое целое. Он оставляет вокальными всего несколько треков, заставляя каждого слушателя воспринимать их по-своему.
Понять сущность музыки не может даже Крету: «Никакие слова не могут объяснить музыку. Музыка объясняет себя. Слова и звуки — подобны лучам прожектора. Они не показывают вам всего. Вы должны увидеть то, что находится между потоками света».
Крету не нравится говорить о классических категориях хита: "Я не забочусь, можете ли Вы подпеть к песне. Но я хочу, чтобы это осталось в памяти аудитории и заставило их чувствовать, что они хотят слушать это снова. И снова…"

Wikipedia|YouTube|Facebook|Official page

Синглы:

1990 - Sadeness Part I(APE | image+.cue)▼
Продолжительность:00:17:29

Tреклист:
01. Sadeness Part I (Radio Edit) (Enigma) - (04:20)
02. Sadeness Part I (Violent US Remix) (Enigma) - (05:05)
03. Sadeness Part I (Extended Trance Mix) (Enigma) - (05:02)
04. Sadeness Part I (Meditation Mix) (Enigma) - (03:01)
© 1990 Virgin (Cat. № 663 703)
Лог создания рипа ▼TextEAC extraction logfile from 3. November 2007, 4:50 for CD
Enigma / CDM "Sadeness Part I"

Used drive : HL-DT-STDVD-RAM GSA-H20L Adapter: 0 ID: 0
Read mode : Secure with NO C2, accurate stream, disable cache
Read offset correction : 102
Overread into Lead-In and Lead-Out : No

Used output format : Internal WAV Routines
44.100 Hz; 16 Bit; Stereo

Other options :
Fill up missing offset samples with silence : Yes
Delete leading and trailing silent blocks : No
Installed external ASPI interface


Range status and errors
Selected range
Filename C:_EnigmaSingles[1990] Sadeness Part ISadeness Part I (CDM).wav

Peak level 100.0 %
Range quality 100.0 %
CRC 7409BB81
Copy OK

No errors occured

End of status reportЛог проверки качества ▼TextAUDIOCHECKER v2.0 beta (build 457) - by Dester - [email protected]
~~~~~~~~~~~~~~~~~~~~~~~~~~~~~~~~~~
-=== DO NOT EDIT THIS FILE! ===-

Путь: ...[1990] Sadeness Part I

01 -=- Sadeness Part I (CDM).ape -=- CDDA (100%)

103005588Содержание индексной карты (.CUE) ▼TextREM GENRE "New Age"
REM DATE 1990
REM DISCID 2E041A04
REM COMMENT "ExactAudioCopy v0.95b2"
PERFORMER "Enigma"
TITLE "CDM Sadeness Part I"
FILE "Sadeness Part I (CDM).ape" WAVE
TRACK 01 AUDIO
TITLE "Sadeness Part I (Radio Edit)"
PERFORMER "Enigma"
INDEX 00 00:00:00
INDEX 01 00:00:33
TRACK 02 AUDIO
TITLE "Sadeness Part I (Violent US Remix)"
PERFORMER "Enigma"
INDEX 00 04:18:54
INDEX 01 04:20:63
TRACK 03 AUDIO
TITLE "Sadeness Part I (Extended Trance Mix)"
PERFORMER "Enigma"
INDEX 00 09:24:26
INDEX 01 09:26:40
TRACK 04 AUDIO
TITLE "Sadeness Part I (Meditation Mix)"
PERFORMER &
23fd74c333e42b703fbb697a96074ad6c72f0701(Сборник, 1990 - 2005) Enigma - Maxi Singles / 16 альбомов (Abstract, Ambient, NewAge) [APE (image + .cue), lossless] (Сборник, 1990 - 2005) Enigma - Maxi Singles / 16 альбомов (Abstract, Ambient, NewAge) [APE (image + .cue), lossless] " />

Аплоадер: Админ, дата: 29-06-2012, 16:00, торрент скачан: 359 раз

Понравилась раздача? Посмотрите эти:
  • (2006) The Beatles / Love (Rock) [24bit - 96kHz] [FLAC(image+.cue), lossles ...
  • (2012) The Doors - L.A. Woman(1971)[lp] [24bit - 96kHz] [FLAC(image+.cue), ...
  • (2009) Nightwish / Made In Hong Kong (And In Various Other Places) (Sympho- ...
  • (2013) Buddy Guy / Rhythm & Blues (2CD) (Blues) [FLAC (image+.cue), Lossles ...
  • (2013) Paul McCartney / New (Deluxe Edition) (Rock) [FLAC (image,+.cue), lo ...
  • (2013) Linkin Park & Steve Aoki / A Light That Never Comes (Electronic Rock ...
  • (1990-2008) Enigma - 17 синглов (NewAge) [mp3, 320/CBR]
  • (2001) Андрей Алексин / Ш*лава (Pop) [FLAC (image+.cue), lossless]
  • (2008) Karunesh /Enlightenment (New Age) [FLAC (image+.cue), lossless]
  • (Сборник, 2005-2007) Jens Gad (ex. Enigma) / 3 альбома (Downtempo, Ambient) ...
  • (Дискография, 1990 - 2008) Enigma (Abstract, Ambient, NewAge) [FLAC (tracks ...
  • (Дискография, 1990 - 2008) Enigma - 7 Studio Albums (Japan) (Abstract, Ambi ...
  • (2012) Marconi Union / Different Colours (Post Rock, Downtempo, Ambient) [F ...
  • (2012) Sandra / Maybe Tonight (Pop, Eurodisco) [FLAC (tracks+.cue), lossles ...
  • [LP] (2011) Adele / 21 (2 CD) (XL Recordings LP; DMR) (R&B, Soul, Gospel, B ...
  • (2012) Madonna / Superstar (Pop) [FLAC (image+.cue), lossless]
  • (2009) ENIGMA / The Platinum Collection 3CD [FLAC Images + .cue, Lossless]
  • Enigma / MCMXC A.D. [2003, Ambient, New Age, DVD5]
  • (2012) Buckethead / Electric Sea (Experimental/Acoustic/Ambient/Rock) [FLAC ...
  • (2011) Sylvan / Sceneries (Neo-Progressive) [FLAC (image+.cue), lossless]
  • Информация
    Посетители, находящиеся в группе Гости, не могут оставлять комментарии к данной публикации.