вход на сайт

Имя пользователя :
Пароль :

Восстановление пароля Регистрация
(2012) Yiruma / Stay In Memory (New Age, Instrumental, Neoclassical, Piano) [FLAC (tracks+.cue), lossless]
Рейтинг:
(голосов: 1)



[img]{THEME}/images/logopost.png[/img]




Исполнитель:Yiruma
Страна: Корея
Альбом:Stay In Memory
Тип альбома:Студийный
Год выпуска:2012
Жанр:New Age, Instrumental, Neoclassical, Piano
Формат: FLAC (tracks+.cue)
Битрейт: lossless
Log-файл: Присутствует
Продолжительность: 00:43:17



Wikipedia |YouTube|Facebook

Tреклист:
01. Nocturne No.1 In C ; Summer Nocturne (03:53)
02. Stay In Memory (03:02)
03. I Could See You (03:47)
04. Nocturne No.2 In Eb (03:25)
05. Impromptu (04:52)
06. Happy Couple, Sad Couple ‘N Happy Again (Piano Ver.) (02:36)
07. Falling In Love (Piano Ver.) (04:52)
08. Nocturne No.3 In A Minor (03:25)
09. Silver Line (03:17)
10. Nocturne No.4 In Db (03:21)
11. The Days That’ll Never Come (03:10)
12. Painted (03:32)


Лог создания рипа ▼Text
Exact Audio Copy V1.0 beta 3 from 29. August 2011

EAC extraction logfile from 30. May 2012, 22:32

Yiruma / Stay In Memory

Used drive : HL-DT-STDVDRAM GH24LS70 Adapter: 0 ID: 0

Read mode : Secure
Utilize accurate stream : Yes
Defeat audio cache : Yes
Make use of C2 pointers : No

Read offset correction : 667
Overread into Lead-In and Lead-Out : No
Fill up missing offset samples with silence : Yes
Delete leading and trailing silent blocks : No
Null samples used in CRC calculations : Yes
Used interface : Native Win32 interface for Win NT & 2000
Gap handling : Appended to previous track

Used output format : User Defined Encoder
Selected bitrate : 896 kBit/s
Quality : High
Add ID3 tag : No
Command line compressor : C:Program Files (x86)Exact Audio CopyFlacflac.exe
Additional command line options : -8 -V -T "ARTIST=%artist%" -T "TITLE=%title%" -T "ALBUM=%albumtitle%" -T "DATE=%year%" -T "TRACKNUMBER=%tracknr%" -T "TOTALTRACKS=%numtracks%" -T "GENRE=%genre%" -T "ALBUM ARTIST=%albumartist%" -T "COMMENT=L2Bits, EAC V1.0 beta 3 Secure Mode, Test & Copy, AccurateRip, FLAC -8" %source%

TOC of the extracted CD

Track | Start | Length | Start sector | End sector
---------------------------------------------------------
1 | 0:00.00 | 3:53.32 | 0 | 17506
2 | 3:53.32 | 3:02.60 | 17507 | 31216
3 | 6:56.17 | 3:47.06 | 31217 | 48247
4 | 10:43.23 | 3:25.35 | 48248 | 63657
5 | 14:08.58 | 4:52.14 | 63658 | 85571
6 | 19:00.72 | 2:36.21 | 85572 | 97292
7 | 21:37.18 | 4:52.47 | 97293 | 119239
8 | 26:29.65 | 3:25.41 | 119240 |&n
953ed3c9c548cc01ea7634697870347065ecc681(2012) Yiruma / Stay In Memory (New Age, Instrumental, Neoclassical, Piano) [FLAC (tracks+.cue), lossless] (2012) Yiruma / Stay In Memory (New Age, Instrumental, Neoclassical, Piano) [FLAC (tracks+.cue), lossless] " />

Аплоадер: Админ, дата: 4-06-2012, 20:31, торрент скачан: 359 раз

Понравилась раздача? Посмотрите эти:
  • (2013) Prodigy & The Alchemist / Albert Einstein (Underground Hip-Hop) [FLA ...
  • (2010) Zaz / Zaz (Nu jazz, Chanson, Soul) [FLAC (tracks+.cue), lossless]
  • (2011) B.B. King / Icon (Blues) [FLAC (tracks+.cue), lossless]
  • (Дискография, 1998-2005) Jeanette Alexander (Instrumental, New Age, Piano S ...
  • (2012) Amy MacDonald / Life In A Beautiful Light (Deluxe Edition) (Acoustic ...
  • (2012, Сборник) VA / Saxophone Golden Best (Jazz, Smooth Jazz) [FLAC (track ...
  • (2008, Сборник) VA / Relax Piano - Yesterday - Trai Tim Mua Thu - Vol.7 (Ne ...
  • (2012) Tomandandy / Resident Evil: Retribution (Score, Soundtrack)[FLAC (tr ...
  • (2012) Sally Night / Love For Sale (Vocal Jazz) [FLAC (tracks+.cue), lossle ...
  • (2012) The Piano Guys / The Piano Guys (Contemporary Classic, Instrumental, ...
  • (2012) Marc Enfroy / Dreams Of The Forest (New Age, Instrumental, Cinematic ...
  • (1996) The Rasmus / Peep (Finnish Version) (Alternative Rock) [FLAC (tracks ...
  • (2012) Usher / Looking 4 Myself (Deluxe Version) (R&B, Soul) [FLAC (tracks+ ...
  • (2011) Дельфин / Существо (Alternative|Experimental) [FLAC (tracks+.cue), l ...
  • (2012) Les Friction / Les Friction (Alt. Rock/Neo-Classical/Orchestral) [FL ...
  • (2011) SeeS / The enD (Progressive/Math Metal) [FLAC (tracks+.cue), lossles ...
  • (2012) Our Lady Peace / Curve (Alternative/Rock) [FLAC (tracks+.cue), lossl ...
  • (2012) Nine Lashes / World We View (Alt.Rock/Alt.Metal/Christian) [FLAC (tr ...
  • (2011) Phinehas / Thegodmachine (Metalcore) [FLAC (tracks+.cue), lossless]
  • (2012) For Today / Immortal (Metalcore, Hardcore, Christian) [FLAC (tracks+ ...
  • Информация
    Посетители, находящиеся в группе Гости, не могут оставлять комментарии к данной публикации.