вход на сайт

Имя пользователя :
Пароль :

Восстановление пароля Регистрация
(2009) Paul Cardall / Sacred Piano (New Age) [FLAC (tracks+.cue), lossless]
Рейтинг:
(голосов: 1)



[img]{THEME}/images/logopost.png[/img]



Исполнитель: Paul Cardall
Альбом: Sacred Piano
Страна: USA
Тип альбома: Студийный
Лейбл: Shadow Mountain Records
Номер по каталогу: 5026072
Год выпуска: 2009
Жанр: New Age
Формат: FLAC (tracks+.cue)
Битрейт: lossless
Log-файл: Присутствует.
Продолжительность: 00:59:35


Tреклист:
01. Paul Cardall - Unseen World (06:31)
02. Paul Cardall - Redeemer (05:51)
03. Paul Cardall - Live To Love (03:32)
04. Paul Cardall - Gracies Theme (04:19)
05. Paul Cardall - Sweet Escape (03:08)
06. Paul Cardall - After The Storm (02:55)
07. Paul Cardall - Come Thou Fount (02:37)
08. Paul Cardall - Hope (03:16)
09. Paul Cardall - Were You There? (05:15)
10. Paul Cardall - Amazing Grace (04:16)
11. Paul Cardall - Time (03:10)
12. Paul Cardall - Voices (04:56)
13. Paul Cardall - The Release (03:24)
14. Paul Cardall - Embraced (03:11)
15. Paul Cardall - Reverently, Quietly (03:09)

Лог создания рипа ▼TextX Lossless Decoder version 20100908 (121.2)

XLD extraction logfile from 2011-07-04 22:43:08 -0700

Paul Cardall / Sacred Piano

Used drive : MATSHITA DVD-R UJ-825 (revision DBN7)

Use cdparanoia mode : YES (CDParanoia III 10.2 engine)
Disable audio cache : OK for the drive with cache less than 2750KB
Make use of C2 pointers : NO
Read offset correction : 102
Max retry count : 100
Gap status : Analyzed, Appended

TOC of the extracted CD
Track | Start | Length | Start sector | End sector
---------------------------------------------------------
1 | 00:00:00 | 06:31:30 | 0 | 29354
2 | 06:31:30 | 05:51:28 | 29355 | 55707
3 | 12:22:58 | 03:32:18 | 55708 | 71625
4 | 15:55:01 | 04:19:27 | 71626 | 91077
5 | 20:14:28 | 03:08:46 | 91078 | 105223
6 | 23:22:74 | 02:55:06 | 105224 | 118354
7 | 26:18:05 | 02:37:19 | 118355 | 130148
8 | 28:55:24 | 03:16:56 | 130149 | 144904
9 | 32:12:05 | 05:15:37 | 144905 | 168566
10 | 37:27:42 | 04:16:52 | 168567 | 187818
11 | 41:44:19 | 03:10:02 | 187819 | 202070
12 | 44:54:21 | 04:56:45 | 202071 | 224315
13 | 49:50:66 | 03:24:42 | 224316 | 239657
14 | 53:15:33 | 03:11:22 | 239658 | 254004
15 | 56:26:55 | 03:09:16 | 254005 | 268195

All Tracks
Album gain : -3.72 dB
Peak : 0.988647

Track 01
Filename : /Volumes/Necrinomicon/RIP/Paul Cardall - Sacred Piano (2009) [FLAC]/01 Unseen World.flac
Pre-gap length : 00:02:00

Track gain : -1.71 dB
Peak
28a8d0d82383fd2a3cec9f2df3bb96bf3733456f(2009) Paul Cardall / Sacred Piano (New Age) [FLAC (tracks+.cue), lossless] (2009) Paul Cardall / Sacred Piano (New Age) [FLAC (tracks+.cue), lossless] " />

Аплоадер: Админ, дата: 28-05-2012, 17:29, торрент скачан: 359 раз

Понравилась раздача? Посмотрите эти:
  • (2013, Сборник) VA / Paul Elstak: Chase Your Dreams (2 CD) (Hardcore) [MP3 ...
  • (2013) Paul McCartney / New [Japanese Edition] (Classic Rock / Pop Rock) [M ...
  • (2013) Kanye West | Yeezus (Rap|Experimental Hip-Hop) [FLAC (tracks+.cue), ...
  • (2001) Paul Oakenfold/ Swordfish/ Пароль "Рыба меч" (OST) [MP3, 1 ...
  • (2008) Paul Kalkbrenner / Berlin Calling / Берлин зовет (OST) [MP3, 320 k ...
  • (2011) Paul Cardall / New Life (New Age, Neoclassical, Piano) [Mp3, 320/CBR ...
  • (2009, Сборник) VA / Piano Portraits Lullaby (New Age, Instrumental, Piano ...
  • (2012) Paul Van Dyk / Evolution (Trance) [MP3, 320/CBR]
  • (1988) PAUL SHARADA / Boxers (Electronic ,Italo Disco) [MP3, 320/CBR]
  • (2011) Paul Dee Laek / Ocean Silence (Electronic, Dubstep, Dance) [mp3, 320 ...
  • (1992) Paul Mauriat / Nostaljazz (Instrumental) [FLAC (image+.cue) lossless ...
  • (2011) Moby / Destroyed (Electronic, Downtempo, Ambient) [FLAC (tracks+.cue ...
  • (2012) Paul Van Dyk / Evolution (Progressive House, Trance) [FLAC (tracks+. ...
  • (Дискография, 2001-2011) Paul Kalkbrenner (Techno, Tech House, Minimal, Ele ...
  • (2009) Paul Van Dyk - Volume (The Best Of) (Trance) [MP3, 207,211/VBR]
  • (1990) Paul Hertzog / Кровавый спорт / Bloodsport (OST) [MP3 320CBR]
  • (2010) Paul van Dyk / In Da Club: Back to School (Trance) [MP3, 320/CBR]
  • (2012) Lana Del Rey / Born To Die (Indie Pop) [FLAC (tracks+.cue), lossless ...
  • (2012) Young Guns / Bones (Alternative Rock) [FLAC (tracks +.cue), lossless ...
  • (2011) 7eventh Time Down / Alive In You (Alternative Rock/Modern Rock/Chris ...
  • Информация
    Посетители, находящиеся в группе Гости, не могут оставлять комментарии к данной публикации.