вход на сайт

Имя пользователя :
Пароль :

Восстановление пароля Регистрация
(2011, сборник) VA / Vintage Cafe 6 - Blue & Beauty (Lounge & Jazz Blends) [APE (tracks+.cue), lossless]
Рейтинг:
(голосов: 1)



[img]{THEME}/images/logopost.png[/img]



Vintage Cafe 6 - Blue & Beauty
Исполнитель: VA
Название сборника: Vintage Cafe 6 - Blue & Beauty
Год выпуска: 2011
Жанр: Lounge & Jazz Blends
Формат: APE (tracks+.cue)
Битрейт: lossless


CD1 - Jazz Essentials ▼
Продолжительность: 1:15:39

Tреклист:
1. Scubba / Something (feat Sarah Menescal) (2:41)
2. Banda Do Sul / Into The Groove (feat Natascha) (3:54)
3. 48th St Collective / Come Together (3:14)
4. Adabela / Sand & The Sea (3:20)
5. Index / Noon Hour Blues (4:35)
6. The Cooltrane Quartet / Oh! Darling (4:02)
7. Von Mondo / Test Me (3:45)
8. Brazil XXI & Silvinha Santana / Like A Virgin (4:11)
9. Scubba / Tumbling Dice (feat Dew) (3:46)
10. Glambeats Corp / Hollywood (3:22)
11. Richard Eastwood / Let It Be (3:47)
12. Von Mondo / Momentum (3:29)
13. Amazonics / Since I Dont Have You (single edit) (3:35)
14. Render / Fly With Me (5:06)
15. Betty Says / Yesterday (2:35)
16. Deborah Dixon & Les Crossaders / A Hard Days Night (2:55)
17. The Bryan J White Quartet / Honey Pie (2:39)
18. Von Mondo / Slow Scat (4:17)
19. Leo Portela / Shining Pearl (feat Dew) (3:30)
20. Renauld & The Smooth Jazz Quintet / Hey Jude (3:37)
21. Sixth Finger / Lost Weekend (3:20)

Лог создания рипа ▼TextExact Audio Copy V0.99 prebeta 5 from 4. May 2009

EAC extraction logfile from 24. September 2011, 23:22

Vintage Cafe 6 / CD1 - Jazz Essentials

Used drive : Optiarc DVD RW AD-7243S Adapter: 4 ID: 0

Read mode : Secure
Utilize accurate stream : Yes
Defeat audio cache : Yes
Make use of C2 pointers : No

Read offset correction : 48
Overread into Lead-In and Lead-Out : No
Fill up missing offset samples with silence : Yes
Delete leading and trailing silent blocks : No
Null samples used in CRC calculations : Yes
Used interface : Installed external ASPI interface
Gap handling : Appended to previous track

Used output format : Monkeys Audio Lossless Encoder v3.99 DLL
Sample format : High Lossless Compression


TOC of the extracted CD

Track | Start | Length | Start sector | End sector
---------------------------------------------------------
1 | 0:00.00 | 2:40.54 | 0 | 12053
2 | 2:40.54 | 3:53.39 | 12054 | 29567
3 | 6:34.18 | 3:13.65 | 29568 | 44107
4 | 9:48.08 | 3:19.38 | 44108 | 59070
5 | 13:07.46 | 4:34.47 | 59071 | 79667
6 | 17:42.18 | 4:01.39 | 79668 | 97781
7 | 21:43.57 | 3:44.73 | 97782 | 114654
8 | 25:28.55 | 4:11.09 | 114655 | 133488
9 | 29:39.64 | 3:46.28 | 133489 | 150466
&
939173e83997d701e829705da7d57132ef5b7400(2011, сборник) VA / Vintage Cafe 6 - Blue & Beauty (Lounge & Jazz Blends) [APE (tracks+.cue), lossless] (2011, сборник) VA / Vintage Cafe 6 - Blue & Beauty (Lounge & Jazz Blends) [APE (tracks+.cue), lossless] " />

Аплоадер: Админ, дата: 8-05-2012, 13:00, торрент скачан: 359 раз

Понравилась раздача? Посмотрите эти:
  • (2011, Сборник) VA / Blue Note Jazz Inspiration - Best Of Bar Jazz (Vocal J ...
  • (2012, Сборник) VA / Chill Lounge Del Mar vol.2 (2xCD) (Lounge, Chillout) [ ...
  • (2012, Сборник) VA / Vintage Cafe 1,2 (4xCD) (Lounge, Lo-Fi, Jazz Blends) [ ...
  • (2013) VA / Dalla in Jazz (Jazz, Vocal Jazz) [FLAC (tracks+.cue), lossless] ...
  • (2013, Сборник) VA / Bar Classics 9 (2CD) (Jazz, Vocal Jazz, Easy Listening ...
  • (2012, Сборник) VA / Bar Lounge Deluxe: The Greatest Midnight Jazz Classics ...
  • (2012, Сборник) VA / Jazz and Beatles (Double Edition) (Jazz, Vocal Jazz, L ...
  • (2007-2012, Сборник) VA / Vintage Cafe Collection (Lounge, Bossa Nova, Chil ...
  • (Jazz) LOUIS ARMSTRONG — Louis Armstrongs All Time Greatest Hits — 2003, F ...
  • (2010) Zaz / Zaz (Nu jazz, Chanson, Soul) [FLAC (tracks+.cue), lossless]
  • (2011) Adele / 21 (Jazz, Lounge, Easy Listening) [FLAC (tracks + .cue), los ...
  • (2011) Sade / The Ultimate Collection ( Soul, Smooth-Jazz, Pop) [FLAC (trac ...
  • (2011) Hugh Laurie / Let Them Talk (Blues, Jazz) [FLAC (tracks+.cue), lossl ...
  • (2011) Michael Bublé / Christmas (Limited Edition) (Vocal Jazz, Christmas) ...
  • (2009) Koan / When The Silence Is Speaking (Ambient, Downtempo, Chillout) [ ...
  • (2012) Katie Melua / Secret Symphony (Jazz Pop, Vocal Jazz) [FLAC (tracks+. ...
  • (2006, сборник) VA / The Kings of Jazz (Bop, Soul-Jazz, Future Jazz, Acid J ...
  • (2012, Сборник) VA / Saxophone Golden Best (Jazz, Smooth Jazz) [FLAC (track ...
  • (2012, Сборник) VA / Cafe Del Mar XVIII (2CD) (Lounge) [FLAC (tracks+.cue), ...
  • (2012, Сборник) VA / Verve Today 2012 (Mainstream Jazz, Vocal Jazz) [FLAC ( ...
  • (2012, Сборник) VA / Vintage Lounge (2 CD) (Lounge, Downtempo, Lo-Fi) [FLA ...
  • (2010) Rihanna / Loud (R&B) [FLAC (tracks+.cue), lossless]
  • (2010) Sade / Soldier Of Love ( jazz, soul, blues) [FLAC (tracks) lossless] ...
  • (2012) Peter White / Here We Go (Smooth Jazz) [FLAC (tracks+.cue), lossles ...
  • (2012) Guillaume Perret & The Electric Epic / Guillaume Perret & The Electr ...
  • Информация
    Посетители, находящиеся в группе Гости, не могут оставлять комментарии к данной публикации.