вход на сайт

Имя пользователя :
Пароль :

Восстановление пароля Регистрация
(2011) ATB / Distant Earth (Remixed) (Trance) [FLAC (tracks+.cue), lossless]
Рейтинг:
(голосов: 1)



[img]{THEME}/images/logopost.png[/img]



Исполнитель: ATB
Альбом: Distant Earth (Remixed)
Страна: Germany
Тип альбома: Студийный
Год выпуска: 2011
Жанр: Trance
Формат: FLAC (tracks+.cue)
Битрейт: Lossless
Log-файл: Присутствует
Продолжительность: 02:28:55CD 1-2 ▼CD 1:
01. ATB with Amurai feat. Melissa Loretta - Heartbeat (ATBs Deep From The Heart Remix) (08:48)
02. ATB feat. Sean Ryan - Killing Me Inside (Josh Gallahan Remix) (08:06)
03. ATB feat. JanSoon - Move On (Jashari Remix) (06:47)
04. ATB feat. Christina Soto - One More (Inpetto Dub Remix) (06:23)
05. ATB feat. Melissa Loretta - If ItsLove (Jeziel Quintela, Jquintel & Manufactured Superstars Remix) (08:06)
06. ATB feat. Christina Soto - Twisted Love (Otto Knows Remix) (06:35)
07. ATB feat. Sean Ryan - All I Need Is You (Fade Remix) (06:48)
08. ATB with Dash Berlin - Apollo Road (Patric La Funk Remix) (06:23)
09. ATB with Amurai feat. Melissa Loretta - Heartbeat (Laserkraft 3D Remix Vocal Edit) (07:00)
10. ATB feat. Melissa Loretta - White Letters (DBN Remix) (07:34)

CD 2:
01. ATB feat. JanSoon - Move On (ATB Club Version) (08:26)
02. ATB with Amurai feat. Melissa Loretta - Heartbeat (Mync Remix) (06:04)
03. ATB feat. JanSoon - Move On (Lissat & Voltaxx Remix) (07:27)
04. ATB feat. Kate Louise Smith - Where You Are (Mike Foyle Remix) (08:29)
05. ATB feat. Christina Soto - One More (Manuel De La Mare & Luca Monticelli Remix) (07:50)
06. ATB feat. Kate Louise Smith - Where You Are (Club Version) (05:55)
07. ATB with Amurai feat. Melissa Loretta - Heartbeat (Club Version) (07:21)
08. ATB with Josh Gallahan - Chapter One (Club Version) (08:41)
09. ATB with Dash Berlin - Apollo Road (Club Version) (08:16)
10. ATB feat. Christina Soto - Twisted Love (Distant Earth Vocal Club Version) (07:47)
Лог создания рипа ▼
Log CD 1 ▼TextX Lossless Decoder version 20120120 (139.0)

XLD extraction logfile from 2012-02-08 18:07:18 +0200

ATB / Distant Earth Remixed CD1

Used drive : HL-DT-ST DVDRW GWA4080MA (revision AE38)

Ripper mode : XLD Secure Ripper
Disable audio cache : OK for the drive with a cache less than 1375KiB
Make use of C2 pointers : NO
Read offset correction : 667
Max retry count : 100
Gap status : Analyzed, Appended

TOC of the extracted CD
Track | Start | Length | Start sector | End sector
---------------------------------------------------------
1 | 00:00:00 | 08:48:10 | 0 | 39609
2 | 08:48:10 | 08:06:23 | 39610 | 76082
3 | 16:54:33 | 06:47:45 | 76083 | 106652
4 | 23:42:03 | 06:23:67 | 106653 | 135444
5 | 30:05:70 | 08:06:58 | 135445 | 171952
6 | 38:12:53 | 06:35:64 | 171953 | 201641
7 | 44:48:42 | 06:48:35 | 201642 | 232276
8 | 51:37:02 | 06:23:57 | 232277 | 261058
9 | 58:00:59 | 07:00:02 | 261059 | 292560
10 | 65:00:61 | 07:34:20 | 292561 | 326630

AccurateRip Summary
Disc not found in AccurateRip DB.

All Tracks
Alb
587b7855ca91996aa75e53851422181709353436(2011) ATB / Distant Earth (Remixed) (Trance) [FLAC (tracks+.cue), lossless] (2011) ATB / Distant Earth (Remixed) (Trance) [FLAC (tracks+.cue), lossless] " />

Аплоадер: Админ, дата: 8-03-2012, 09:15, торрент скачан: 359 раз

Понравилась раздача? Посмотрите эти:
  • (2013, Сборник) VA / Techno Club Vol. 41 (Mixed By Talla 2XLC & The Thrills ...
  • (2010, сборник) VA / Trance Maniacs Party: Melody Of Heartbeat # 16 (Trance ...
  • (2010) Tiesto / Kaleidoscope (Remixed) (Trance) [MP3, 320/CBR]
  • (2011, сборник) VA / Best of In Da Club Vol.11 (Trance) [MP3, 320/CBR]
  • (2011, сборник) VA / AG: I love Vocal Trance (Best Of February) (Trance) [M ...
  • (2011) ATB / Distant Earth (Deluxe Edition) (3CD) (Album) (Trance) [MP3, 32 ...
  • (2011, сборник) VA / May Dance Club #1 (Club, Dance) [Mp3, 320/CBR]
  • (2011, сборник) VA / Vocal Trance Collection Vol.78 (Trance) [MP3, 320/CBR] ...
  • (2012) Solarstone / Touchstone (Remixed) (Trance) [MP3, 320/CBR]
  • (2012, сборник) VA / Big Vocal Trance. Vol.1 (Vocal Trance) [MP3, 320/CBR] ...
  • (2012, Сборник) VA / Soul of Ibiza Volume 35 (Uplifting Trance, Vocal Tranc ...
  • (2012, Сборник) VA / Vocal Trance Volume 41 (Vocal Trance) [MP3 (tracks), 3 ...
  • (2012, Сборник) VA / Vocal Trance Volume 42 (Vocal Trance) [MP3 (tracks), 3 ...
  • (2012, Сборник) VA / In Da Club Euphoric Trance Volume 4 (Summer 2012) (Tra ...
  • (2012, Сборник) ATB / All The Best (Trance) [MP3 (Unmixed, Tracks), 320/CBR ...
  • (2011, сборник) VA / Trance Maniacs Party: Melody Of Heartbeat #48 (Trance) ...
  • (2011, сборник) VA / AG: I Love Vocal Trance Volume 33 (Trance) [MP3, 320/C ...
  • (2011) ATB Feat. Jansoon/ Move On (Trance) [MP3, 320/CBR]
  • (2011, сборник) VA / AG: I Love Vocal Trance vol.40 (Trance) [MP3, 320/CBR] ...
  • (2011, сборник) VA / AG: I Love Vocal Trance vol.40 (Trance) [MP3, 320/CBR] ...
  • (2011) VA / Trance. Vocal Fascination 06 (Trance) [MP3, 320 kbps / CBR]
  • (2012) Omnia feat. Melissa Loretta / Halo (Trance) [MP3, 320/CBR]
  • (2012, сборник) VA / Vocal Trance Collection Vol.85 (Trance) [MP3, 320/CBR] ...
  • (2012, Сборник) VA / Erotic Desires Volume 244 (Vocal Trance) [MP3 (tracks, ...
  • (2012, сборник) VA / Trance In Motion Vol 126 (Trance) [МР3+сue, 320/СBR]
  • Информация
    Посетители, находящиеся в группе Гости, не могут оставлять комментарии к данной публикации.