вход на сайт

Имя пользователя :
Пароль :

Восстановление пароля Регистрация
(Сборник, 2007-2009) VA / Romantic Of Nature I - VI (New Age, Piano, Relax, Nature Music) [APE (tracks+.cue), lossless]
Рейтинг:
(голосов: 1)



[img]{THEME}/images/logopost.png[/img]



С.б.о.р.н.и.к
Исполнитель: VA
Название сборника: Romantic Of Nature (гармония природы и музыки) I - VI
Год выпуска: 2007-2009
Жанр: New Age, Piano, Relax, Nature Music
Формат: APE (tracks+.сue)
Битрейт: lossless
Продолжительность: 05:17:47

2007 ~ Romantic Of Nature I ~ ▼

Продолжительность:50:37

01 ... Andrey Cechelero - Ode A Esperanca ... 06:09
02 ... Kenio Fuke - Alem Do Horizonte ... 04:58
03 ... Corciolli - Passeio Das Ondas ... 11:43
04 ... Kenio Fuke - Caminhos De Luz ... 05:18
05 ... Andrey Cechelero - Esperanza Que Persiste ... 05:00
06 ... Ulisses Rocha - Rio Acima ... 04:08
07 ... Andrey Cechelero - Chuva De Manha ... 04:11
08 ... Kenio Fuke - Essencia Vertical ... 06:33
09 ... Andrey Cechelero - Doce Fonte ... 02:34
EAC log ▼TextExact Audio Copy V1.0 beta 1 from 15. November 2010
EAC extraction logfile from 11. November 2011, 17:44
Various / Romantic Of Nature - I
Used drive : ASUS DRW-24B3ST Adapter: 4 ID: 0
Read mode : Secure
Utilize accurate stream : Yes
Defeat audio cache : Yes
Make use of C2 pointers : No
Read offset correction : 6
Overread into Lead-In and Lead-Out : No
Fill up missing offset samples with silence : Yes
Delete leading and trailing silent blocks : No
Null samples used in CRC calculations : Yes
Used interface : Native Win32 interface for Win NT & 2000
Gap handling : Appended to previous track
Used output format : Monkeys Audio Lossless Encoder
Selected bitrate : Fast Lossless Compression
Quality : High
Add ID3 tag : Yes
Command line compressor : C:Program FilesExact Audio CopyMacMAC.exe
Additional command line options : %dest% -t "Genre=%genre%" -t "Artist=%artist%" -t "Title=%title%" -t "Album=%albumtitle%" -t "Year=%year%" -t "Track=%tracknr%" -t "Comment=%comment%" mac.exe %source% %dest% -c3000
TOC of the extracted CD
Track | Start | Length | Start sector | End sector
---------------------------------------------------------
1 | 0:00.00 | 6:09.40 | 0 | 27714
2 | 6:09.40 | 4:58.11 | 27715 | 50075
3 | 11:07.51 | 11:43.33 | 50076 | 102833
4 | 22:51.09 | 5:18.24 | 102834 | 126707
5 | 28:09.33 | 5:00.00 | 126708 | 149207
6 | 33:09.33 | 4:08.47 | 149208 | 167854
7 | 37:18.05 | 4:11.23 | 167855 | 186702
8 | 41:29.28 | 6:33.21 | 186703 | 216198
9 | 48:02.49 | 2:34.74 | 216199 | 227822
Track 1
Filename F:ЗА
e83b9da502fc20f1ab83106176284d2875945063(Сборник, 2007-2009) VA / Romantic Of Nature I - VI (New Age, Piano, Relax, Nature Music) [APE (tracks+.cue), lossless] (Сборник, 2007-2009) VA / Romantic Of Nature I - VI (New Age, Piano, Relax, Nature Music) [APE (tracks+.cue), lossless] " />

Аплоадер: Админ, дата: 28-12-2011, 14:28, торрент скачан: 359 раз

Понравилась раздача? Посмотрите эти:
  • (2013) Fall Out Boy / Save Rock and Roll (Pop-Punk) [ALAC (tracks), lossles ...
  • (2011) Disturbed / The Lost Children (Alternative Metal) [FLAC (tracks+.cue ...
  • (2011) Daughtry / Break the Spell (Deluxe Edition) (Alt. Rock / Modern Rock ...
  • (2007, 5 CDs Box set) VA / 100 Hits - Rock (Hard Rock, Classic Rock) [FLAC ...
  • (2012) Katie Melua / Secret Symphony (Jazz Pop, Vocal Jazz) [FLAC (tracks+. ...
  • (2011) B.B. King / Icon (Blues) [FLAC (tracks+.cue), lossless]
  • (2012) Yiruma / Stay In Memory (New Age, Instrumental, Neoclassical, Piano) ...
  • (2008, Сборник) VA / Relax Piano - Yesterday - Trai Tim Mua Thu - Vol.7 (Ne ...
  • (2012) Tomandandy / Resident Evil: Retribution (Score, Soundtrack)[FLAC (tr ...
  • (2012) The Piano Guys / The Piano Guys (Contemporary Classic, Instrumental, ...
  • (2011) Mistabishi / Trip (Drum & Bass, Breakbeat) [FLAC (tracks+.cue), loss ...
  • (2011) Scorpions / Comeblack (Hard Rock) [FLAC (tracks+.cue)lossless]
  • (2011) Дельфин / Существо (Alternative|Experimental) [FLAC (tracks+.cue), l ...
  • (2011) Ленинград / Хна (Rock) [FLAC (tracks+.cue), lossless]
  • (2012) Buckethead / Electric Sea (Experimental/Acoustic/Ambient/Rock) [FLAC ...
  • (2012) Les Friction / Les Friction (Alt. Rock/Neo-Classical/Orchestral) [FL ...
  • (2011) SeeS / The enD (Progressive/Math Metal) [FLAC (tracks+.cue), lossles ...
  • (2012) Bleeding Through / The Great Fire (Symphonic Metalcore/Hardcore) [FL ...
  • (2012) Our Lady Peace / Curve (Alternative/Rock) [FLAC (tracks+.cue), lossl ...
  • (2011) Terra Tenebrosa / The Tunnels (Atmospheric Sludge Post-Metal/Psyched ...
  • (2012) KoRn feat. Skrillex / Chaos Lives In Everything (UK Promo) (Nu-metal ...
  • (2012) Nine Lashes / World We View (Alt.Rock/Alt.Metal/Christian) [FLAC (tr ...
  • (2011) Phinehas / Thegodmachine (Metalcore) [FLAC (tracks+.cue), lossless]
  • (2012) For Today / Immortal (Metalcore, Hardcore, Christian) [FLAC (tracks+ ...
  • (2011) Hennie Bekker / Spectrum: An Anthology of Relaxing Instrumental Musi ...
  • Информация
    Посетители, находящиеся в группе Гости, не могут оставлять комментарии к данной публикации.