вход на сайт

Имя пользователя :
Пароль :

Восстановление пароля Регистрация
(Сборник, 2005-2007) Jens Gad (ex. Enigma) / 3 альбома (Downtempo, Ambient) [FLAC (tracks+.cue), lossless]
Рейтинг:
(голосов: 1)



[img]{THEME}/images/logopost.png[/img]



Jens Gad (ex.-Enigma) | Achillea | Le Spa Sonique
3 Albums | 2005-2007Исполнитель: Jens Gad
Жанр: Downtempo, Ambient
Формат: FLAC (tracks+.cue)
Битрейт: lossless
Продолжительность: 02:22:20Об исполнителе: Jens Gad - композитор, продюсер и гитарист. Был сопродюсером Enigma, выпустил несколько альбомов под собственным именем, а также создал проект Achillea.Студийные альбомы:

2005 - Achillea - "The Nine Worlds" (FLAC/divacks+.cue)▼
Продолжительность: 00:46:47

Tреклист:
01. Achillea - Prelude (0:59)
02. Ragnarok - Twilight Of The Gods (5:57)
03. Odins Hill (7:09)
04. The Monks Of Lindisfarne (3:12)
05. Cape Porcupine (4:38)
06. The Seeress Prophecy (Daydreaming) (4:26)
07. Land Of The Elves (2:24)
08. Shears From Scar (4:37)
09. The Nine Worlds (3:56)
10. Staraja Ladoga (5:00)
11. Othila - The Rune Masters (3:03)
12. Achillea - Exodus (1:19) Лог EAC ▼TextExact Audio Copy V0.99 prebeta 5 from 4. May 2009

EAC extraction logfile from 18. August 2009, 22:27

Achillea / The Nine Worlds

Used drive : Optiarc DVD RW AD-7200S Adapter: 0 ID: 0

Read mode : Secure
Utilize accurate stream : Yes
Defeat audio cache : Yes
Make use of C2 pointers : No

Read offset correction : 48
Overread into Lead-In and Lead-Out : No
Fill up missing offset samples with silence : Yes
Delete leading and trailing silent blocks : No
Null samples used in CRC calculations : Yes
Used interface : Native Win32 interface for Win NT & 2000
Gap handling : Appended to previous track

Used output format : User Defined Encoder
Selected bitrate : 320 kBit/s
Quality : High
Add ID3 tag : No
Command line compressor : C:Program FilesExact Audio CopyFlacflac.exe
Additional command line options : -6 -V -T "ARTIST=%a" -T "TITLE=%t" -T "ALBUM=%g" -T "DATE=%y" -T "TRACKNUMBER=%n" -T "GENRE=%m" -T "COMMENT=%e" %s -o %d


TOC of the extracted CD

Track | Start | Length | Start sector | End sector
---------------------------------------------------------
1 | 0:00.00 | 0:59.02 | 0 | 4426
2 | 0:59.02 | 5:57.49 | 4427 | 31250
3 | 6:56.51 | 7:09.36 | 31251 | 63461
4 | 14:06.12 | 3:12.59 | 63462 | 77920
5 | 17:18.71 | 4:38.69 | 77921 | 98839
6 | 21:57.65 | 4:26.36 | 98840 | 118825
7 | 26:24.26 | 2:24.47 | 118826 | 129672
8 | 28:48.73 | 4:37.40 | 129673&n
2ae74781aa5672f1ec295059e0118ecb42463e41(Сборник, 2005-2007) Jens Gad (ex. Enigma) / 3 альбома (Downtempo, Ambient) [FLAC (tracks+.cue), lossless] (Сборник, 2005-2007) Jens Gad (ex. Enigma) / 3 альбома (Downtempo, Ambient) [FLAC (tracks+.cue), lossless] " />

Аплоадер: Админ, дата: 30-09-2011, 19:07, торрент скачан: 359 раз

Понравилась раздача? Посмотрите эти:
  • (2010) Schiller / Greatest Hits (2 CD) (Electronic,Downtempo, Trance, Ambi ...
  • (2010) Zaz / Zaz (Nu jazz, Chanson, Soul) [FLAC (tracks+.cue), lossless]
  • (Дискография 2003-2005) Skalpel (Nu Jazz) [FLAC (tracks+.cue), lossless]
  • (2011) Disturbed / The Lost Children (Alternative Metal) [FLAC (tracks+.cue ...
  • (2011) Виктория - победительница / Victorious (OST) [FLAC (tracks+.cue), lo ...
  • (2011) B.B. King / Icon (Blues) [FLAC (tracks+.cue), lossless]
  • (2012) Marconi Union / Different Colours (Post Rock, Downtempo, Ambient) [F ...
  • (2012, Сборник) VA / The Best Of Lounge 4 (Lounge, Chillout, Jazzy, Downtem ...
  • (1999) Muffler / Muffler (Drum & Bass) [FLAC (tracks+.cue), lossless]
  • (2011) Ляпис Трубецкой / Веселые картинки (Rock) [FLAC (tracks+.cue), lossl ...
  • (2011) Scorpions / Comeblack (Hard Rock) [FLAC (tracks+.cue)lossless]
  • (2011) Дельфин / Существо (Alternative|Experimental) [FLAC (tracks+.cue), l ...
  • (2011) Ленинград / Хна (Rock) [FLAC (tracks+.cue), lossless]
  • (2009) Mystica / Second Dive (Trance, Ambient & Downtempo, Chill Out) [FLAC ...
  • (2012) Buckethead / Electric Sea (Experimental/Acoustic/Ambient/Rock) [FLAC ...
  • (2005) Magna Canta / Agnus Dei (Mysticpop, Ambientpop) [FLAC (tracks+.сue), ...
  • (2012) Les Friction / Les Friction (Alt. Rock/Neo-Classical/Orchestral) [FL ...
  • (2011) SeeS / The enD (Progressive/Math Metal) [FLAC (tracks+.cue), lossles ...
  • (2011) Downhere / On The Altar Of Love (Alternative Rock/Christian Rock) [F ...
  • (2012) Bleeding Through / The Great Fire (Symphonic Metalcore/Hardcore) [FL ...
  • (2012) Our Lady Peace / Curve (Alternative/Rock) [FLAC (tracks+.cue), lossl ...
  • (2009) Exivious (Ex. Cynic) / Exivious (Progressive Metal/Death Metal) [FLA ...
  • (2012) Nine Lashes / World We View (Alt.Rock/Alt.Metal/Christian) [FLAC (tr ...
  • (2011) Phinehas / Thegodmachine (Metalcore) [FLAC (tracks+.cue), lossless]
  • (2012) For Today / Immortal (Metalcore, Hardcore, Christian) [FLAC (tracks+ ...
  • Информация
    Посетители, находящиеся в группе Гости, не могут оставлять комментарии к данной публикации.