вход на сайт

Имя пользователя :
Пароль :

Восстановление пароля Регистрация
(2008) Karunesh /Enlightenment (New Age) [FLAC (image+.cue), lossless]
Рейтинг:
(голосов: 1)



[img]{THEME}/images/logopost.png[/img]



Исполнитель: Karunesh
Альбом: Enlightenment: A Sacred Collection
Тип альбома: Студийный
Год выпуска: 2008
Жанр: New Age
Формат: FLAC (image+.cue)
Битрейт: lossless
Продолжительность: 00:63:36

Tреклист:
1. Calling Wisdom (5:34)
2. Flowing Bamboo (6:05)
3. For the Joy of It All (6:27)
4. Longing for the Unknown (7:20)
5. Moon Temple (5:48)
6. Keeper of Mystery (5:35)
7. Sunrise at the Ganges (5:56)
8. Morning Celebration (5:09)
9. Returning to Now (4:52)
10. Peace Within (5:25)
11. Ancient Voices (5:20)

"Отчет EAC" ▼TextEAC extraction logfile from 5. September 2008, 15:13 for CD
Karunesh / Enlightenment

Used drive : IDE-DVD DROM6216 Adapter: 0 ID: 1
Read mode : Secure with NO C2, accurate stream, disable cache
Read offset correction : 738
Overread into Lead-In and Lead-Out : No

Used output format : C:Program FilesFLACflac.exe (User Defined Encoder)
256 kBit/s
Additional command line options : -8 -V -T "ARTIST=%a" -T "TITLE=%t" -T "ALBUM=%g" -T "DATE=%y" -T "TRACKNUMBER=%n" -T "GENRE=%m" -T "COMMENT=EAC FLAC -8" %s

Other options :
Fill up missing offset samples with silence : Yes
Delete leading and trailing silent blocks : No
Installed external ASPI interface


Track 1
Filename D:Flac Rips1 - Calling Wisdom.wav

Pre-gap length 0:00:02.00

Peak level 73.5 %
Track quality 100.0 %
Test CRC AEBE8C23
Copy CRC AEBE8C23
Copy OK

Track 2
Filename D:Flac Rips2 - Flowing Bamboo.wav

Pre-gap length 0:00:03.00

Peak level 98.8 %
Track quality 100.0 %
Test CRC 971B302D
Copy CRC 971B302D
Copy OK

Track 3
Filename D:Flac Rips3 - For the Joy of it All.wav

Pre-gap length 0:00:02.00

Peak level 99.6 %
Track quality 100.0 %
Test CRC DEA93EC1
Copy CRC DEA93EC1
Copy OK

Track 4
Filename D:Flac Rips4 - Longing for the Unknown.wav

Pre-gap length 0:00:02.00

Peak level 98.8 %
Track quality 100.0 %
Test CRC CC0028C0
Copy CRC CC0028C0
Copy OK

Track 5
Filename D:Flac Rips5 - Moon Temple.wav

Pre-gap length 0:00:02.00

Peak level 75.2 %
Track quality 100.0 %
Test CRC 14943E45
Copy CRC 14943E45
Copy OK

Track 6
Filename D:Flac Rips6 - Keeper of Mystery.wav

Pre-gap length 0:00:02.00

Peak level 99.2 %
Track quality 100.0 %
Test CRC 38BB6CDE
Copy CRC 38BB6CDE
Copy OK

Track 7
Filename D:Flac Rips7 - Sunrise at the Ganges.wav

Pre-gap length 0:00:02.00

Peak level 99.5 %
Track quality 99.9 %
Test CRC 636D2FE0
Copy CRC 636D2FE0
Copy OK

Track 8
Filename D:Flac Rips8 - Morning
02d84f635557526f77e9286de8dd96ced37e0d42(2008) Karunesh /Enlightenment (New Age) [FLAC (image+.cue), lossless] (2008) Karunesh /Enlightenment (New Age) [FLAC (image+.cue), lossless] " />

Аплоадер: Админ, дата: 17-09-2011, 17:38, торрент скачан: 359 раз

Понравилась раздача? Посмотрите эти:
  • (Jazz) Ray Charles — The Very Best Of Ray Charles - 2000, FLAC (tracks), lo ...
  • (1999) Red Hot Chili Peppers - Californication (Alternative rock, Funk) [FL ...
  • (2009) The Black Eyed Peas / The E.N.D. (The Energy Never Dies) (Target Del ...
  • (2001) GORILLAZ / Gorillaz (US Edition) (Hip-Hop) [FLAC (image+cue), lossle ...
  • (2010 , OST) Пипец / Kick Ass (OST) [FLAC (tracks+.cue) lossless]
  • (2011) Orjan Nilsen / In My Opinion (Trance) [FLAC (tracks+.cue), lossless] ...
  • (2002) PPK (ППК) / ReLoad. Russian Trance (Trance) [FLAC (tracks+cue), loss ...
  • (2010, сборник) VA / CDeelder Box (Swing) [FLAC (tracks+.cue), lossless]
  • (1988) David Grisman Quintet feat. Svend Asmussen / Svingin With Svend (Jaz ...
  • (2009) Timbaland / Shock Value II (Hip-Hop / RnB) [FLAC (tracks+.cue), loss ...
  • (2012) High Contrast / The Agony & The Ecstasy (Drum and Bass) [FLAC (track ...
  • (2006) The Rasmus / Shot (Single) (Alternative Rock) [FLAC (tracks+.cue), l ...
  • (2009) Miley Cyrus / The Time of Our Lives (Pop) [FLAC (tracks+.cue), lossl ...
  • (2010) [AMATORY] / Инстинкт обречённых (Nu Metal) [FLAC (tracks), lossless] ...
  • (2011) Linkin Park / Iridescent (Alternative Rock) [FLAC(image+.cue), lossl ...
  • (1999) Necrophagist / Onset Of Putrefaction (Technical Death Metal) [FLAC ( ...
  • (2011) This Will Destroy You / Tunnel Blanket (Post Rock) [FLAC (tracks+.cu ...
  • (2004) Дельфин / Запись концерта 19.11.04 (Alternative|Experimental) [FLAC ...
  • (Дискография, 2002 - 2012) Rodrigo y Gabriela (Acoustic, Flamenco, Classica ...
  • (2011) Ink Stained Promises / Relations. (Metalcore, Hardcore) [FLAC (track ...
  • Информация
    Посетители, находящиеся в группе Гости, не могут оставлять комментарии к данной публикации.