вход на сайт

Имя пользователя :
Пароль :

Восстановление пароля Регистрация
(2008) Oceanlab / Sirens Of The Sea (Trance, Progressive Trance) [FLAC (tracks+.cue) lossless]
Рейтинг:
(голосов: 1)



[img]{THEME}/images/logopost.png[/img]



Исполнитель: Oceanlab
Альбом: Sirens Of The Sea
Тип альбома: Студийный (LP)
Год выпуска: 2008
Производитель диска: Singapore
Лейбл: EQ Music
Каталог#: EA 71651
Жанр: Trance, Progressive Trance
Формат: FLAC (tracks+.cue)
Битрейт: lossless
Продолжительность: 01:10:21 + 01:14:39

Tреклист:
CD 1 - Sirens of the Sea - Main Disc
01.... Just Listen 3:50
02.... Sirens Of The Sea 6:01
03.... If I Could Fly 5:14
04.... Breaking Ties 5:16
05.... Miracle 6:45
06.... Come Home 4:34
07.... On A Good Day 6:01
08.... Ashes 6:35
09.... I Am What I Am 4:47
10.... Lonely Girl 5:36
11.... Secret 5:25
12.... On The Beach 4:49
13.... Breaking Ties (Movie Mix) 6:12

CD 2 - OceanLabs Greatest Hits
01.... Beautiful Together (Radio Edit) 3:55
02.... Satellite (Radio Edit) 3:15
03.... Clear Blue Water (Ferry Corsten Remix Edit) 2:54
04.... Sky Falls Down (Above & Beyond Club Mix) 7:11
05.... Sirens Of The Sea (Kyau & Albert Remix) 7:55
06.... Beautiful Together (Nitrous Oxide Remix) 7:52
07.... Satellite (Above & Beyond Club Mix) 7:27
08.... Clear Blue Water (Above & Beyond Progressive Mix) 6:37
09.... Sky Falls Down (Armin van Buuren Remix) 10:21
10.... Sirens Of The Sea (Above & Beyond Club Mix) 7:54
11.... Sirens Of The Sea (Cosmic Gate Remix) 9:18

Отчет EAC:
CD1 ▼TextExact Audio Copy V0.99 prebeta 4 from 23. January 2008

EAC extraction logfile from 6. January 2009, 23:37

OceanLab / Sirens of the Sea

Used drive : ASUS CD-S480/AH Adapter: 1 ID: 1

Read mode : Secure
Utilize accurate stream : Yes
Defeat audio cache : Yes
Make use of C2 pointers : No

Read offset correction : 12
Overread into Lead-In and Lead-Out : No
Fill up missing offset samples with silence : Yes
Delete leading and trailing silent blocks : No
Null samples used in CRC calculations : Yes
Used interface : Installed external ASPI interface
Gap handling : Appended to previous track

Used output format : User Defined Encoder
Selected bitrate : 320 kBit/s
Quality : High
Add ID3 tag : No
Command line compressor : C:Program FilesExact Audio Copyflac.exe
Additional command line options : -V -8 -T "artist=%a" -T "title=%t" -T "album=%g" -T "date=%y" -T "tracknumber=%n" -T "genre=%m" %s


TOC of the extracted CD

Track | Start | Length | Start sector | End sector
---------------------------------------------------------
1 | 0:00.00 | 3:49.09 | 0 | 17183
2 | 3:49.09 | 5:57.23 | 17184 | 43981
3 | 9:46.32 | 5:07.54 | 43982 | 67060
4 | 14:54.11 | 5:13.10 | 67061 | 90545
5 | 20:07.21 | 6:42.48 | 90546 | 120743
&
7d93496c4b8e6cf082d7456af5bba5da52ad28fb(2008) Oceanlab / Sirens Of The Sea (Trance, Progressive Trance) [FLAC (tracks+.cue) lossless] (2008) Oceanlab / Sirens Of The Sea (Trance, Progressive Trance) [FLAC (tracks+.cue) lossless] " />

Аплоадер: Админ, дата: 15-06-2010, 02:05, торрент скачан: 359 раз

Понравилась раздача? Посмотрите эти:
  • (2012) Lazlo / Lazlo (Electro Swing, Nu Jazz, Electronic) [FLAC (tracks+.cu ...
  • (2012) Signum / Remixed (Trance) [FLAC (tracks+.cue), Lossless]
  • (2013) Allure / Kiss From The Past (The Remix Album) (Progressive Trance) [ ...
  • (2010) Schiller / Greatest Hits (2 CD) (Electronic,Downtempo, Trance, Ambi ...
  • (2010) Вячеслав Бутусов и Ю-Питер / Цветы и Тернии (Rock) [FLAC (tracks + . ...
  • (2010) Zaz / Zaz (Nu jazz, Chanson, Soul) [FLAC (tracks+.cue), lossless]
  • (2011) Adele / 21 (Jazz, Lounge, Easy Listening) [FLAC (tracks + .cue), los ...
  • (2011) Depeche Mode / Personal Jesus 2011 Club Promo (Electronic, Synthpop) ...
  • (2002) PPK (ППК) / ReLoad. Russian Trance (Trance) [FLAC (tracks+cue), loss ...
  • (2011) Armin van Buuren / Mirage The Remixes (Trance, Progressive Trance, P ...
  • (2011) B.B. King / Icon (Blues) [FLAC (tracks+.cue), lossless]
  • (2012) Paul Van Dyk / Evolution (Progressive House, Trance) [FLAC (tracks+. ...
  • (2000) Bomfunk MCs / In Stereo (Special 2CD Edition) (Electro, Hip-Hop, Fun ...
  • (2012, Сборник) VA / Woman Trance Voices vol. 7 (4 CD) (Vocal, Progressive ...
  • (1999) Muffler / Muffler (Drum & Bass) [FLAC (tracks+.cue), lossless]
  • (2011) Gandharva / Lord of the Universe (New Age, Classical, Erhu) [FLAC (t ...
  • (2011) Ленинград / Хна (Rock) [FLAC (tracks+.cue), lossless]
  • (2009) Mystica / Second Dive (Trance, Ambient & Downtempo, Chill Out) [FLAC ...
  • (2012) Les Friction / Les Friction (Alt. Rock/Neo-Classical/Orchestral) [FL ...
  • (2011) SeeS / The enD (Progressive/Math Metal) [FLAC (tracks+.cue), lossles ...
  • (2011) Vildhjarta / Måsstaden (Progressive Math Metal/Djent) [FLAC (tracks+ ...
  • (2009) Exivious (Ex. Cynic) / Exivious (Progressive Metal/Death Metal) [FLA ...
  • (2012) KoRn feat. Skrillex / Chaos Lives In Everything (UK Promo) (Nu-metal ...
  • (2011) Phinehas / Thegodmachine (Metalcore) [FLAC (tracks+.cue), lossless]
  • (2012) Dash Berlin / #musicislife (Trance) [FLAC (tracks+.сue), lossless]
  • Информация
    Посетители, находящиеся в группе Гости, не могут оставлять комментарии к данной публикации.