вход на сайт

Имя пользователя :
Пароль :

Восстановление пароля Регистрация
(2010) David Wahler / A Star Danced (New Age, Ambient, Instrumental) [FLAC (track+ cue) lossless]
Рейтинг:
(голосов: 1)



[img]{THEME}/images/logopost.png[/img]



Исполнитель: David Wahler
Альбом: A Star Danced
Тип альбома: Студийный (LP)
Год выпуска: 2010
Жанр: New Age, Ambient, Instrumental
Формат: FLAC (track+ cue)
Битрейт: lossless
Продолжительность: 01:06:14

Треклист:
[05:05] 01. Quest
[06:33] 02. A Star Danced
[03:58] 03. The Seeds of Time
[06:14] 04. Come Gentle Night
[04:09] 05. Peaseblossum
[05:33] 06. Reverie
[04:14] 07. Yvonne
[05:07] 08. Sigh Away Sunday
[03:59] 09. Vespera
[03:52] 10. Pie Jesu
[05:22] 11. Missing You
[04:02] 12. A Rose Distilled
[02:55] 13. Unsunned Snow
[05:04] 14. Quest (Reprise)

Отчет EAC: ▼Exact Audio Copy V0.99 prebeta 5 from 4. May 2009

EAC extraction logfile from 18. April 2010, 19:43

David Wahler / A Star Danced

Used drive: PLEXTOR DVDR PX-800A Adapter: 0ID: 0

Read mode : Secure
Utilize accurate stream : Yes
Defeat audio cache: Yes
Make use of C2 pointers : No

Read offset correction: 48
Overread into Lead-In and Lead-Out: No
Fill up missing offset samples with silence : Yes
Delete leading and trailing silent blocks : No
Null samples used in CRC calculations : Yes
Used interface: Native Win32 interface for Win NT & 2000
Gap handling: Appended to previous track

Used output format: User Defined Encoder
Selected bitrate: 1024 kBit/s
Quality : High
Add ID3 tag : No
Command line compressor : C:Program FilesExact Audio CopyFLACFLAC.EXE
Additional command line options : -6 -V -T "ARTIST=%a" -T "TITLE=%t" -T "ALBUM=%g" -T "DATE=%y" -T "TRACKNUMBER=%n" -T "GENRE=%m" -T "COMMENT=%e" %s -o %d


TOC of the extracted CD

Track | Start|Length| Start sector | End sector
---------------------------------------------------------
1|0:00.00 |5:05.50 | 0|22924
2|5:05.50 |6:33.33 | 22925|52432
3| 11:39.08 |3:58.36 | 52433|70318
4| 15:37.44 |6:14.73 | 70319|98441
5| 21:52.42 |4:09.03 | 98442&nb
a47754782a0a8daacd7675b85c1a6f5c36170b10(2010) David Wahler / A Star Danced (New Age, Ambient, Instrumental) [FLAC (track+ cue) lossless] (2010) David Wahler / A Star Danced (New Age, Ambient, Instrumental) [FLAC (track+ cue) lossless] " />

Аплоадер: Админ, дата: 14-06-2010, 10:19, торрент скачан: 359 раз

Понравилась раздача? Посмотрите эти:
Информация
Посетители, находящиеся в группе Гости, не могут оставлять комментарии к данной публикации.