вход на сайт

Имя пользователя :
Пароль :

Восстановление пароля Регистрация
(2010) Faithless / Not Going Home (Trance/House) [FLAC (tracks), lossless]
Рейтинг:
(голосов: 1)



[img]{THEME}/images/logopost.png[/img]



Исполнитель: Faithless
Альбом: Not Going Home
Год выпуска: 2010
Жанр: Trance, House
Формат:FLAC, (tracks)
Битрейт: lossless
Продолжительность: 00:34:41

Треклист:
[03:14] 01. Not Going Home (Original Radio Edit)
[06:58] 02. Not Going Home (Original Mix)
[08:59] 03. Not Going Home (Eric Prydz Remix)
[08:09] 04. Not Going Home (Armin van Buuren Remix)
[07:19] 05. Not Going Home (Rollo & Sister Bliss Monster Acid Club Mix)

Отчёт Audiochecker: ▼AUDIOCHECKER v2.0 beta (build 457) - by Dester - [email protected]
~~~~~~~~~~~~~~~~~~~~~~~~~~~~~~~~~~

Started at: среда, 19. 05. 2010. - 12:43.47
5 files found

1 -===- D:#Other#Faithless - Not Going Home-CDM-20101 Faithless - Not Going Home (Original Mix - Radio Edit).flac
Extracted successfully
Conclusion: this track is CDDA with probability 100%
Tempfile successfully deleted.

2 -===- D:#Other#Faithless - Not Going Home-CDM-20102 Faithless - Not Going Home (Original Mix).flac
Extracted successfully
Conclusion: this track is CDDA with probability 100%
Tempfile successfully deleted.

3 -===- D:#Other#Faithless - Not Going Home-CDM-20103 Faithless - Not Going Home (Eric Prydz Remix).flac
Extracted successfully
Conclusion: this track is CDDA with probability 99%
Tempfile successfully deleted.

4 -===- D:#Other#Faithless - Not Going Home-CDM-20104 Faithless - Not Going Home (Armin Van Bueren Remix).flac
Extracted successfully
Conclusion: this track is CDDA with probability 100%
Tempfile successfully deleted.

5 -===- D:#Other#Faithless - Not Going Home-CDM-20105 Faithless - Not Going Home (Rollo & Sister Bliss Monster Acid Club Mix).flac
Extracted successfully
Conclusion: this track is CDDA with probability 100%
Tempfile successfully deleted.


Finished at: среда, 19. 05. 2010. - 12:51.22 (operation time: 0:07.35)

Отчёт EAC: ▼
X Lossless Decoder version 20100505 (119.1)

XLD extraction logfile from 2010-05-09 17:02:52 +0200

Faithless / Not Going Home (Single)

Used drive : SONY DVD RW DRX-S70U (revision DJ07)

Use cdparanoia mode : YES (CDParanoia III 10.2 engine)
Disable audio cache : OK for the drive with cache less than 2750KB
Make use of C2 pointers : NO
Read offset correction: 6
Max retry count : 100

TOC of the extracted CD
Track | Start|Length| Start sector | End sector
---------------------------------------------------------
1| 00:00:00 | 03:16:72 | 0|14771
2| 03:16:72 | 07:00:68 | 14772|46339
3| 10:17:65 | 09:03:03 | 46340|87067
4| 19:20:68 | 08:11:36 | 87068| 123928
5| 27:32:29 | 07:19:02 |123929| 156855

All Tracks
Album gain : -9.04 dB
Peak : 1.000000
79c1acff2bc653058a566fe30fa64fd541da5ffa(2010) Faithless / Not Going Home (Trance/House) [FLAC (tracks), lossless] (2010) Faithless / Not Going Home (Trance/House) [FLAC (tracks), lossless] " />

Аплоадер: Админ, дата: 17-05-2010, 16:20, торрент скачан: 359 раз

Понравилась раздача? Посмотрите эти:
  • (2011) Faithless / Original Album Classics (Progressive Trance / Ambient / ...
  • (2012, Сборник) VA / Eric Prydz - Epic Radio 006 (Progressive House) [MP3 ...
  • (2003, сборник) VA - Одинокий пастух Vol.5 - Галерея инструментальной музык ...
  • (2001, сборник) VA / Одинокий пастух Vol.1 - Галерея инструментальной музык ...
  • (2001, сборник) VA / Одинокий пастух Vol.2 - Галерея инструментальной музык ...
  • (Дискография) EVANESCENCE (Alternative rock) [FLAC (tracks+.cue) lossless] ...
  • (1994) SADE / The Best of Sade (Jazz/Blues) [ FLAC (image+.cue) lossless ]
  • (2009) Cascada / Evacuate The Dancefloor (Pop, Electronic, Dance, Trance) [ ...
  • (2009) ONE REPUBLIC / Waking Up (Pop-Rock/Alternative) [FLAC (tracks+.cue) ...
  • (2010) Katie Melua / The House ( jazz-pop, vocal jazz) [FLAC (tracks + .cu ...
  • (2008) Oceanlab / Sirens Of The Sea (Trance, Progressive Trance) [FLAC (tra ...
  • (Дискография) Adriano Celentano (Pop) [АРЕ/FLAC (image+.cue) lossless]
  • (2011) Leon Bolier / Elysian Fields (Trance) [FLAC(track)lossless]
  • (2007) VA / Mauro De Federicis - Canzoni... And More (Тестовый диск) [APE(i ...
  • (2002) PPK (ППК) / ReLoad. Russian Trance (Trance) [FLAC (tracks+cue), loss ...
  • (2011) Armin van Buuren / Armin Only - Mirage: The Music (Trance, Progressi ...
  • (2009) Clubroot / Clubroot (Drum & Bass, Dubstep) [FLAC (image + .сue) ...
  • (2010) Clubroot / II: MMX (UK Garage, Dubstep) [FLAC (track+ cue) lossless] ...
  • [Психоактивная аудиопрограмма] «Танец Дождя» (Hemi-Sync, глубокая тета-дель ...
  • [EN] (Психоактивная аудиопрограмма) Роберт А. Монро - Hemi-Sync - Врата Вос ...
  • (2002, сборник) VA - Одинокий пастух Vol.4 - Галерея инструментальной музык ...
  • (2010) Armin van Buuren / A State of Trance 462 (Trance) [МР3+CUE, 320/CBR] ...
  • (2010-2011) Alexandra Stan / 2 сингла (Club House, House, Euro House) [FLAC ...
  • (2012) Young Guns / Bones (Alternative Rock) [FLAC (tracks +.cue), lossless ...
  • (2012) Switchfoot / Vice Re-Verses (Remixes) (Alternative, Christian Rock, ...
  • Информация
    Посетители, находящиеся в группе Гости, не могут оставлять комментарии к данной публикации.