вход на сайт

Имя пользователя :
Пароль :

Восстановление пароля Регистрация
(2012, Сборник) VA / Ambient Lounge 15 (Limited Edition) perfect music for relaxin & chillin (2xCD) (Lounge, Chillout, Deep House) [FLAC (tracks+.cue), lossless]
Рейтинг:
(голосов: 1)



[img]{THEME}/images/logopost.png[/img]



Сборник
Исполнитель: Various Artists
Название сборника: Ambient Lounge 15 (Limited Edition) perfect music for relaxin & chillin (2xCD)
Год выпуска: 2012
Жанр: Lounge, Chillout, Deep House
Страна (Издатель, Каталожный номер): Germany (GLOBE, 898049-2)
Аудиокодек: FLAC (*.flac)
Тип рипа: tracks+.cue
Битрейт: lossless
Лог файл: присутствуют
Наличие сканов в содержимом раздачи: Есть
Продолжительность: 02:36:43

СD/1 (FLAC (tracks+.cue)) ▼
Продолжительность: 01:18:33

Tреклист:
01. Ian Pooley - Stonyridge Terrace (6:01)
02. Jazzamor - Song Of Silence (4:08)
03. Timax - Backyard BBQ Jam (6:00)
04. Re:Jazz - Twiggy Twiggy (3:18)
05. Moca - Latein (4:54)
06. Kings Of Tomorrow - Finally (Lenny Ibizarre Mix) (5:12)
07. Levitation - Out Of Time (4:30)
08. Vargo - Get Back To Serenity (OHM-G Remix) (5:00)
09. One Man Ahead Feat. Christina Vidal - Make It Right (4:58)
10. Fil A Fil - Just An Illusion (6:06)
11. Luigi Ladu & Margarita Gonzalez - Voce Abusou (3:46)
12. Hacienda - Unfinished And Undone (5:49)
13. Asheni - This House (Shelter Me) (5:39)
14. Aromabar - Space Patrol (5:28)
15. Sa Trinxa Sunstars - Dipped In Golden Dreams (Remix) (3:30)
16. Bent - I Cant Believe Its Over (4:15)
Лог создания рипа ▼Text
Exact Audio Copy V1.0 beta 1 from 15. November 2010

EAC extraction logfile from 25. April 2013, 16:32

Various / Ambient Lounge Vol.15 CD1

Used drive : ASUS DRW-24B3ST Adapter: 1 ID: 2

Read mode : Secure
Utilize accurate stream : Yes
Defeat audio cache : Yes
Make use of C2 pointers : No

Read offset correction : 6
Overread into Lead-In and Lead-Out : No
Fill up missing offset samples with silence : Yes
Delete leading and trailing silent blocks : No
Null samples used in CRC calculations : Yes
Used interface : Native Win32 interface for Win NT & 2000
Gap handling : Appended to previous track

Used output format : User Defined Encoder
Selected bitrate : 896 kBit/s
Quality : High
Add ID3 tag : No
Command line compressor : C:Program Files (x86)Exact Audio CopyFlacflac.exe
Additional command line options : -8 -V -T "ARTIST=%a" -T "TITLE=%t" -T "ALBUM=%g" -T "DATE=%y" -T "TRACKNUMBER=%n" -T "GENRE=%m" -T "COMMENT=ripped by Oleandris" %s


TOC of the extracted CD

Track | Start | Length | Start sector | End sector
---------------------------------------------------------
1 | 0:00.00 | 6:00.50 | 0 | 27049
2 | 6:00.50 | 4:07.66 | 27050 | 45640
3 | 10:08.41 | 5:59.61 | 45641 | 72626
4 | 16:08.27 | 3:17.71 | 72627 | 87472
5 | 19:26.23 | 4:54.08 | 87473 | &n
3c41a2239b0803e3e9a8613ecc9045339bd22ded(2012, Сборник) VA / Ambient Lounge 15 (Limited Edition) perfect music for relaxin & chillin (2xCD) (Lounge, Chillout, Deep House) [FLAC (tracks+.cue), lossless] (2012, Сборник) VA / Ambient Lounge 15 (Limited Edition) perfect music for relaxin & chillin (2xCD) (Lounge, Chillout, Deep House) [FLAC (tracks+.cue), lossless] " />

Аплоадер: Админ, дата: 26-04-2013, 21:19, торрент скачан: 359 раз

Понравилась раздача? Посмотрите эти:
  • (2013, Сборник) VA / La Nuit (Rare Lounge & Chilled House Grooves) Vol.6 (2 ...
  • (2013) Hans Zimmer / Человек из стали / Man Of Steel [Deluxe Edition] (2 CD ...
  • (2012, Сборник) VA / Chill Lounge Del Mar vol.2 (2xCD) (Lounge, Chillout) [ ...
  • (2012, Сборник) VA / Vintage Cafe 1,2 (4xCD) (Lounge, Lo-Fi, Jazz Blends) [ ...
  • (2002, Сборник) VA / Chill Out Edition (2xCD) (Lounge, Chillout, Downtempo, ...
  • (2012, Сборник) VA / Bar Lounge Deluxe: The Greatest Midnight Jazz Classics ...
  • (2012, Сборник) VA / The Best Of Lounge 5 - The Ultimate Lounge Experience ...
  • (2010) Zaz / Zaz (Nu jazz, Chanson, Soul) [FLAC (tracks+.cue), lossless]
  • (2011) Adele / 21 (Jazz, Lounge, Easy Listening) [FLAC (tracks + .cue), los ...
  • (2011) Виктория - победительница / Victorious (OST) [FLAC (tracks+.cue), lo ...
  • (2011) B.B. King / Icon (Blues) [FLAC (tracks+.cue), lossless]
  • (2012) Paul Van Dyk / Evolution (Progressive House, Trance) [FLAC (tracks+. ...
  • (2012) Marconi Union / Different Colours (Post Rock, Downtempo, Ambient) [F ...
  • (2012, Сборник) VA / The Best Of Lounge 4 (Lounge, Chillout, Jazzy, Downtem ...
  • (2012, Сборник) VA / Saxophone Golden Best (Jazz, Smooth Jazz) [FLAC (track ...
  • (2008, Сборник) VA / Relax Piano - Yesterday - Trai Tim Mua Thu - Vol.7 (Ne ...
  • (2012, Сборник) VA / Cafe Del Mar XVIII (2CD) (Lounge) [FLAC (tracks+.cue), ...
  • (2012, Сборник) VA / Vintage Lounge (2 CD) (Lounge, Downtempo, Lo-Fi) [FLA ...
  • (2012, Сборник) VA / Now Thats What I Call Music! 83 (2 CD) (Pop, Dance) [F ...
  • (2012, Сборник) VA / Oriental Rocking Beats: Exotic Club & Chillout Grooves ...
  • (2012, Сборник) VA / Ambient Lounge 14 (2 CD) (Limited Edition) (Lounge, Ch ...
  • (2012) Buckethead / Electric Sea (Experimental/Acoustic/Ambient/Rock) [FLAC ...
  • (2012) Our Lady Peace / Curve (Alternative/Rock) [FLAC (tracks+.cue), lossl ...
  • (2011) Phinehas / Thegodmachine (Metalcore) [FLAC (tracks+.cue), lossless]
  • (2012) Schiller / Sonne (3 CD) (Limited Ultra Deluxe Edition) (Ambient/Chil ...
  • Информация
    Посетители, находящиеся в группе Гости, не могут оставлять комментарии к данной публикации.