вход на сайт

Имя пользователя :
Пароль :

Восстановление пароля Регистрация
(2012, Сборник) VA / Chill Lounge Del Mar vol.2 (2xCD) (Lounge, Chillout) [FLAC (tracks+.cue), lossless]
Рейтинг:
(голосов: 1)



[img]{THEME}/images/logopost.png[/img]



Сборник
Исполнитель: Various Artists
Название сборника: Chill Lounge Del Mar vol.2 (2xCD)
Год выпуска: 2012
Жанр: Lounge, Chillout
Страна (Издатель, Каталожный номер): UK (Paper Chase, 4260053481423)
Аудиокодек: FLAC (*.flac)
Тип рипа: tracks+.cue
Битрейт: lossless
Лог файл: присутствуют
Наличие сканов в содержимом раздачи: Есть
Продолжительность: 02:38:06

СD/1 (FLAC (tracks+.cue)) ▼
Продолжительность: 01:19:03

Tреклист:
01. Rhythm Divine - Moments In Love (Classic Mix) (7:31)
02. The Residance - Unit (Balearic Chillout Mix) (6:44)
03. Liquid Motion - Silent Running (Kenji Club RMX) (4:01)
04. DJ Dag & Pitchrider - Space (Matthew Kramer Ambient Mix) (6:05)
05. Dance 2 Infinity Feat. Elena - Hide & Seek (Sunset Chill Version) (5:26)
06. Zouave Feat. Liv - Wonderful Life (Juan Padilla After Hour Remix) (4:23)
07. Eve Corporation - All Said And Done (Extended) (6:59)
08. Re.Lounge - Fast Love (Deluxe Music Mix) (5:46)
09. Goa Foundation - Let It Rain (Dario Morel Dub) (4:50)
10. Avalounge - Mercedes Moonlights (Cafe Del Mar Version) (4:12)
11. Julian Morris - Holiday Tune (Rare Groove Charts Edit) (4:11)
12. Kool Kandi - Nu Levels Of A Good Feeling (Hed Up Hi RMX) (2:35)
13. 2Deep In Music - Lounge Now (That’S What I Call Smooth) (3:55)
14. Goldtripp Pres. Nu Breed - Right Here With You (Carlos & Cubalos Extended) (6:35)
15. So Project Feat. Daisy Jones Trio - Sagesse (Blank Rooms Relax RMX) (5:50)
Лог создания рипа ▼Text
Exact Audio Copy V1.0 beta 1 from 15. November 2010

EAC extraction logfile from 21. April 2013, 19:30

Various / Chillout Ibiza - Chill Lounge Del Mar Vol. 2

Used drive : ASUS DRW-24B3ST Adapter: 1 ID: 2

Read mode : Secure
Utilize accurate stream : Yes
Defeat audio cache : Yes
Make use of C2 pointers : No

Read offset correction : 6
Overread into Lead-In and Lead-Out : No
Fill up missing offset samples with silence : Yes
Delete leading and trailing silent blocks : No
Null samples used in CRC calculations : Yes
Used interface : Native Win32 interface for Win NT & 2000
Gap handling : Appended to previous track

Used output format : User Defined Encoder
Selected bitrate : 896 kBit/s
Quality : High
Add ID3 tag : No
Command line compressor : C:Program Files (x86)Exact Audio CopyFlacflac.exe
Additional command line options : -8 -V -T "ARTIST=%a" -T "TITLE=%t" -T "ALBUM=%g" -T "DATE=%y" -T "TRACKNUMBER=%n" -T "GENRE=%m" -T "COMMENT=ripped by Oleandris" %s


TOC of the extracted CD

Track | Start | Length | Start sector | End sector
---------------------------------------------------------
1 | 0:00.00 | 7:31.01 | 0 | 33825
2 | 7:31.01 | 6:43.61 | 33826 | 64111
3 | 14:14.62 | 4:00.46 | 64112 | 82157
&
d6ea79e2745b87eaf84a2e263a0b74854ee64f56(2012, Сборник) VA / Chill Lounge Del Mar vol.2 (2xCD) (Lounge, Chillout) [FLAC (tracks+.cue), lossless] (2012, Сборник) VA / Chill Lounge Del Mar vol.2 (2xCD) (Lounge, Chillout) [FLAC (tracks+.cue), lossless] " />

Аплоадер: Админ, дата: 25-04-2013, 15:01, торрент скачан: 359 раз

Понравилась раздача? Посмотрите эти:
  • (2013, Сборник) VA / La Nuit (Rare Lounge & Chilled House Grooves) Vol.6 (2 ...
  • (2012, Сборник) VA / Ambient Lounge 15 (Limited Edition) perfect music for ...
  • (2012, Сборник) VA / Vintage Cafe 1,2 (4xCD) (Lounge, Lo-Fi, Jazz Blends) [ ...
  • (2002, Сборник) VA / Chill Out Edition (2xCD) (Lounge, Chillout, Downtempo, ...
  • (2012, Сборник) VA / Bar Lounge Deluxe: The Greatest Midnight Jazz Classics ...
  • (2012, Сборник) VA / The Best Of Lounge 5 - The Ultimate Lounge Experience ...
  • (2009, сборник) VA / Christmas Chill Out Lounge (Chillout) [FLAC (image + . ...
  • (2010) Zaz / Zaz (Nu jazz, Chanson, Soul) [FLAC (tracks+.cue), lossless]
  • (2011) Adele / 21 (Jazz, Lounge, Easy Listening) [FLAC (tracks + .cue), los ...
  • (2011) B.B. King / Icon (Blues) [FLAC (tracks+.cue), lossless]
  • (2012) Marconi Union / Different Colours (Post Rock, Downtempo, Ambient) [F ...
  • (2012, Сборник) VA / The Best Of Lounge 4 (Lounge, Chillout, Jazzy, Downtem ...
  • (2012, Сборник) VA / Saxophone Golden Best (Jazz, Smooth Jazz) [FLAC (track ...
  • (2008, Сборник) VA / Relax Piano - Yesterday - Trai Tim Mua Thu - Vol.7 (Ne ...
  • (2012, Сборник) VA / Cafe Del Mar XVIII (2CD) (Lounge) [FLAC (tracks+.cue), ...
  • (2012, Сборник) VA / Vintage Lounge (2 CD) (Lounge, Downtempo, Lo-Fi) [FLA ...
  • (2012, Сборник) VA / Now Thats What I Call Music! 83 (2 CD) (Pop, Dance) [F ...
  • (2012, Сборник) VA / Oriental Rocking Beats: Exotic Club & Chillout Grooves ...
  • (2012, Сборник) VA / Ambient Lounge 14 (2 CD) (Limited Edition) (Lounge, Ch ...
  • (1996) The Rasmus / Peep (Finnish Version) (Alternative Rock) [FLAC (tracks ...
  • (2012) Usher / Looking 4 Myself (Deluxe Version) (R&B, Soul) [FLAC (tracks+ ...
  • (2011) Ленинград / Хна (Rock) [FLAC (tracks+.cue), lossless]
  • (2000, сборник) VA / Q Magazine. Essential Chill Out (Electronic, Trip Hop, ...
  • (2011) Phinehas / Thegodmachine (Metalcore) [FLAC (tracks+.cue), lossless]
  • (2012) Schiller / Sonne (3 CD) (Limited Ultra Deluxe Edition) (Ambient/Chil ...
  • Информация
    Посетители, находящиеся в группе Гости, не могут оставлять комментарии к данной публикации.