вход на сайт

Имя пользователя :
Пароль :

Восстановление пароля Регистрация
(2004) Magna Canta / Gregorian Mystics (2 CD) (Mysticpop, Enigmatic) [FLAC (tracks+.cue), lossless]
Рейтинг:
(голосов: 1)



[img]{THEME}/images/logopost.png[/img]




Исполнитель:Magna Canta
Альбом:Gregorian Mystics
Тип альбома:Студийный
Год выпуска: 2004
Год первоначального издания альбома:1992
Жанр:Mysticpop, Enigmatic
Страна (Издатель):Germany (Fortissimo Records, FOR 75056-2)
Формат: FLAC (tracks+.сue)
Битрейт: lossless
Log-файл: Присутствует
Наличие сканов в содержимом раздачи: Да (600dpi, *.png)
Продолжительность: 01:44:40

Tреклист:

Disc 1
Продолжительность: 00:52:55

01. Hymn (Magna Canta) - (03:49)
02. Aethera Et Terra (Magna Canta) - (05:19)
03. Silentium (Magna Canta) - (03:54)
04. Ritmo (Magna Canta) - (05:11)
05. Offizium (Magna Canta) - (03:35)
06. Agnus Dei (Magna Canta) - (05:05)
07. Gregoria (Magna Canta) - (04:44)
08. Alleluia (Magna Canta) - (05:45)
09. Recordare (Magna Canta) - (03:37)
10. Cantandus (Magna Canta) - (04:05)
11. Spritus Sanctus (Magna Canta) - (03:47)
12. Sancta Maria (Magna Canta) - (04:04)Disc 2
Продолжительность: 00:51:45

01. Pater Noster (Magna Canta) - (03:59)
02. In Excelsiss Deo (Magna Canta) - (04:39)
03. Himawari (Magna Canta) - (04:20)
04. Lux Lucies (Magna Canta) - (03:50)
05. Sanctum Christe (Magna Canta) - (04:01)
06. Credo (Magna Canta) - (04:05)
07. Russia (Magna Canta) - (03:59)
08. Kyria (Magna Canta) - (04:04)
09. Close To Heaven (Magna Canta) - (04:22)
10. Celestia Organa (Magna Canta) - (04:06)
11. Sequentia (Magna Canta) - (04:14)
12. Hymn (Deep Spirits Mix) (Magna Canta) - (06:08)
EAC Logs & CUE ▼CD 1 ▼Лог создания рипа ▼TextExact Audio Copy V0.99 prebeta 5 from 4. May 2009

EAC extraction logfile from 19. December 2010, 20:04

Magna Canta / Gregorian Mystics

Used drive : HL-DT-STDVDRAM GH22NS50 Adapter: 7 ID: 0

Read mode : Secure
Utilize accurate stream : Yes
Defeat audio cache : Yes
Make use of C2 pointers : No

Read offset correction : 667
Overread into Lead-In and Lead-Out : No
Fill up missing offset samples with silence : Yes
Delete leading and trailing silent blocks : No
Null samples used in CRC calculations : Yes
Used interface : Native Win32 interface for Win NT & 2000
Gap handling : Appended to previous track

Used output format : User Defined Encoder
Selected bitrate : 128 kBit/s
Quality : Low
Add ID3 tag : No
Command line compressor : C:Program FilesExact Audio CopyFlacflac.exe
Additional command line options : -8 -V -T "ARTIST=%a" -T "TITLE=%t" -T "ALBUM=%g" -T "DATE=%y" -T "TRACKNUMBER=%n" -T "GENRE=%m" -T "COMMENT=ripped by DrStandBy" %s


TOC of the extracted CD

Track | Start | Length | Start sector | End sector
---------------------------------------------------------
1 | 0:00.00 | 3:49.22 | 0 | 17196
2 | 3:49.22 | 5:19.25 | 17197 | 41146
3 | 9:08.47 | 3:54.33 | 41147 | 5
baa745cab7ed71b1ddc179f71bb5b4b5a250fab5(2004) Magna Canta / Gregorian Mystics (2 CD) (Mysticpop, Enigmatic) [FLAC (tracks+.cue), lossless] (2004) Magna Canta / Gregorian Mystics (2 CD) (Mysticpop, Enigmatic) [FLAC (tracks+.cue), lossless] " />

Аплоадер: Админ, дата: 5-11-2012, 12:32, торрент скачан: 359 раз

Понравилась раздача? Посмотрите эти:
  • (Дискография, 2009-2013) Magna Mortalis (Death Metal) [MP3, ~222-239/VBR | ...
  • (2013) Jay-Z / Magna Carta Holy Grail (Hip-Hop) [MP3, 320/CBR]
  • (Дискография, 2001-2005) Magna Canta (New Age, Enigmatic) [MP3, 256-320/CBR ...
  • (2010) Вячеслав Бутусов и Ю-Питер / Цветы и Тернии (Rock) [FLAC (tracks + . ...
  • (2010) Zaz / Zaz (Nu jazz, Chanson, Soul) [FLAC (tracks+.cue), lossless]
  • (2011) Adele / 21 (Jazz, Lounge, Easy Listening) [FLAC (tracks + .cue), los ...
  • (2002) PPK (ППК) / ReLoad. Russian Trance (Trance) [FLAC (tracks+cue), loss ...
  • (2011) Виктория - победительница / Victorious (OST) [FLAC (tracks+.cue), lo ...
  • (2011) B.B. King / Icon (Blues) [FLAC (tracks+.cue), lossless]
  • (2012) Marconi Union / Different Colours (Post Rock, Downtempo, Ambient) [F ...
  • (2008, Сборник) VA / Relax Piano - Yesterday - Trai Tim Mua Thu - Vol.7 (Ne ...
  • (2012) Tomandandy / Resident Evil: Retribution (Score, Soundtrack)[FLAC (tr ...
  • (1999) Muffler / Muffler (Drum & Bass) [FLAC (tracks+.cue), lossless]
  • (2011) Ляпис Трубецкой / Веселые картинки (Rock) [FLAC (tracks+.cue), lossl ...
  • (2011) Gandharva / Lord of the Universe (New Age, Classical, Erhu) [FLAC (t ...
  • (2011) Scorpions / Comeblack (Hard Rock) [FLAC (tracks+.cue)lossless]
  • (2011) Дельфин / Существо (Alternative|Experimental) [FLAC (tracks+.cue), l ...
  • (2011) Ленинград / Хна (Rock) [FLAC (tracks+.cue), lossless]
  • (2005) Magna Canta / Agnus Dei (Mysticpop, Ambientpop) [FLAC (tracks+.сue), ...
  • (2012) Les Friction / Les Friction (Alt. Rock/Neo-Classical/Orchestral) [FL ...
  • (2011) SeeS / The enD (Progressive/Math Metal) [FLAC (tracks+.cue), lossles ...
  • (2011) Downhere / On The Altar Of Love (Alternative Rock/Christian Rock) [F ...
  • (2012) Our Lady Peace / Curve (Alternative/Rock) [FLAC (tracks+.cue), lossl ...
  • (2012) Nine Lashes / World We View (Alt.Rock/Alt.Metal/Christian) [FLAC (tr ...
  • (2011) Phinehas / Thegodmachine (Metalcore) [FLAC (tracks+.cue), lossless]
  • Информация
    Посетители, находящиеся в группе Гости, не могут оставлять комментарии к данной публикации.