вход на сайт

Имя пользователя :
Пароль :

Восстановление пароля Регистрация
(2012) Dash Berlin / #musicislife (Trance) [FLAC (tracks+.сue), lossless]
Рейтинг:
(голосов: 1)



[img]{THEME}/images/logopost.png[/img]



Исполнитель:Dash Berlin
Альбом:#musicislife
Год выпуска:2012
Жанр:Trance
Формат: FLAC (tracks+.сue)
Битрейт: lossless
Продолжительность: 01:11:36

Tреклист:
01. Dash Berlin - Better Half of Me [feat. Jonathan Mendelsohn] (6:52)
02. Dash Berlin - Disarm Yourself [feat. Emma Hewitt] (6:30)
03. Dash Berlin - Silence In Your Heart [feat. Chris Madin] (3:18)
04. Dash Berlin - Apollo Road [with ATB] (6:56)
05. Dash Berlin - Go It Alone [feat. Sarah Howells] (4:41)
06. Dash Berlin - Like Spinning Plates [feat. Emma Hewitt] (6:33)
07. Dash Berlin - When You Were Around [feat. Kate Walsh] (5:24)
08. Dash Berlin - Fool for Life [feat. Chris Madin] (6:40)
09. Dash Berlin - Callisto [with Shogun] (4:51)
10. Dash Berlin - World Falls Apart [feat. Jonathan Mendelsohn] (5:25)
11. Dash Berlin - Surrender [feat. Shanokee] (4:36)
12. Dash Berlin - Aviation [feat. Hoyaa] (5:06)
13. Dash Berlin - Man on the Skyfire [with Cerf, Mitiska & Jaren vs. Shogun] (4:42)



Лог создания рипа ▼TextExact Audio Copy V1.0 beta 3 from 29. August 2011

EAC extraction logfile from 7. May 2012, 20:01

Dash Berlin / musicislife

Used drive : ASUS DRW-24B1ST a Adapter: 0 ID: 3

Read mode : Secure
Utilize accurate stream : Yes
Defeat audio cache : Yes
Make use of C2 pointers : No

Read offset correction : 6
Overread into Lead-In and Lead-Out : No
Fill up missing offset samples with silence : Yes
Delete leading and trailing silent blocks : No
Null samples used in CRC calculations : Yes
Used interface : Native Win32 interface for Win NT & 2000
Gap handling : Appended to previous track

Used output format : User Defined Encoder
Selected bitrate : 1024 kBit/s
Quality : High
Add ID3 tag : No
Command line compressor : C:Program Files (x86)Exact Audio CopyFlacflac.exe
Additional command line options : -8 -V -T "ARTIST=%artist%" -T "TITLE=%title%" -T "ALBUM=%albumtitle%" -T "DATE=%year%" -T "TRACKNUMBER=%tracknr%" -T "GENRE=%genre%" -T "PERFORMER=%albuminterpret%" -T "COMPOSER=%composer%" %haslyrics%--tag-from-file=LYRICS="%lyricsfile%"%haslyrics% -T "ALBUMARTIST=%albumartist%" -T "DISCNUMBER=%cdnumber%" -T "TOTALDISCS=%totalcds%" -T "TOTALTRACKS=%numtracks%" -T "COMMENT=%comment%" %source% -o %dest%


TOC of the extracted CD

Track | Start | Length | Start sector | End sector
---------------------------------------------------------
1 | 0:00.00 | 6:51.70 | 0 | 30894
2 | 6:51.70 | 6:30.34 | 30895 | 60178
3 | 13:22.29 | 3:18.14 | 60179 | 75042
4 | 16:40.43 | 6:55.51 | 75043
af2c1db98ab1d62089bf6f71555e7044e0ab5458(2012) Dash Berlin / #musicislife (Trance) [FLAC (tracks+.сue), lossless] (2012) Dash Berlin / #musicislife (Trance) [FLAC (tracks+.сue), lossless] " />

Аплоадер: Админ, дата: 1-06-2012, 13:44, торрент скачан: 359 раз

Понравилась раздача? Посмотрите эти:
  • (2013, Cборник) VA / Aropa Records: Best Of 2013 (Trance) [MP3 (tracks), 32 ...
  • (2013) Prodigy & The Alchemist / Albert Einstein (Underground Hip-Hop) [FLA ...
  • (2013) Dash Berlin / #Musicislife# Deluxe (2 CD) (Trance) [MP3 (tracks), 32 ...
  • (2013) A$AP Rocky | Long. Live. ASAP (Deluxe Edition) (Rap|Hip-Hop) [FLAC ( ...
  • (2012) Signum / Remixed (Trance) [FLAC (tracks+.cue), Lossless]
  • (2011) Disturbed / The Lost Children (Alternative Metal) [FLAC (tracks+.cue ...
  • (2011) Korn (KoЯn) / The Path Of Totality (Special Edition) (Nu Metal | Dub ...
  • (2012) Katie Melua / Secret Symphony (Jazz Pop, Vocal Jazz) [FLAC (tracks+. ...
  • (2012) Paul Van Dyk / Evolution (Progressive House, Trance) [FLAC (tracks+. ...
  • (2012) B.o.B / Strange Clouds (Deluxe Edition) (Hip-Hop/Pop) [FLAC (tracks+ ...
  • (2012) Marconi Union / Different Colours (Post Rock, Downtempo, Ambient) [F ...
  • (2012) Tomandandy / Resident Evil: Retribution (Score, Soundtrack)[FLAC (tr ...
  • (1996) The Rasmus / Peep (Finnish Version) (Alternative Rock) [FLAC (tracks ...
  • (2012) Usher / Looking 4 Myself (Deluxe Version) (R&B, Soul) [FLAC (tracks+ ...
  • (2010) Dash Berlin / The New Daylight (The Remixes) (Trance) [МР3, 320/CBR] ...
  • (2011) Dash Berlin feat. Emma Hewitt - Disarm Yourself (Trance/Vocal) [MP3, ...
  • (2011) Dash Berlin Feat. Emma Hewitt / Disarm Yourself (The Remixes) (Tranc ...
  • (2012) Buckethead / Electric Sea (Experimental/Acoustic/Ambient/Rock) [FLAC ...
  • (2012) Les Friction / Les Friction (Alt. Rock/Neo-Classical/Orchestral) [FL ...
  • (2011) SeeS / The enD (Progressive/Math Metal) [FLAC (tracks+.cue), lossles ...
  • (2012) Our Lady Peace / Curve (Alternative/Rock) [FLAC (tracks+.cue), lossl ...
  • (2012) Dash Berlin / Music Is Life (Trance) [МР3, 320/CBR]
  • (2012) Dash Berlin / Music Is Life (+ Extended Versions) (Trance) [MP3, 320 ...
  • (2012) Nine Lashes / World We View (Alt.Rock/Alt.Metal/Christian) [FLAC (tr ...
  • (2012) For Today / Immortal (Metalcore, Hardcore, Christian) [FLAC (tracks+ ...
  • Информация
    Посетители, находящиеся в группе Гости, не могут оставлять комментарии к данной публикации.