вход на сайт

Имя пользователя :
Пароль :

Восстановление пароля Регистрация
(2000, сборник) VA / Q Magazine. Essential Chill Out (Electronic, Trip Hop, Downtempo) [FLAC (tracks+.cue), lossless]
Рейтинг:
(голосов: 1)



[img]{THEME}/images/logopost.png[/img]




Сборник
Исполнитель:Various Artists
Страна-производитель диска: UK
Название сборника:Q Magazine. Essential Chill Out
Издатель (лейбл): Q Magazine (Номер по каталогу: QMAGNOV 00)
Год выпуска:2000
Жанр: Electronic, Trip Hop, Downtempo
Формат: FLAC (tracks+.cue)
Битрейт: lossless
Log-файл: Присутствует
Продолжительность: 01:10:46


Tреклист:
01. Novio (Moby) - 02:36
02. At The River (Radio Edit) (Groove Armada) - 03:02
03. Slip Into Something... (Radio Edit) (Kinobe Featuring Ben & Jason) - 03:39
04. Who Knows Where The Time Goes? (Fairport Convention) - 05:05
05. Solid Air (John Martyn) - 05:39
06. Push Downstairs (Underworld) - 05:54
07. Sing It Back (Album Version) (Moloko) - 04:11
08. Half The World Away (Oasis) - 04:17
09. River Man (Nick Drake) - 04:12
10. Underneath The Weeping Willow (Grandaddy) - 02:33
11. Milk (The Classic Mix By Massive Attack) (Garbage) - 04:38
12. Utopia (Goldfrapp) - 04:07
13. Inheritance (Talk Talk) - 05:05
14. Useless (The Kruder & Dorfmeister Session) (Edit) (Depeche Mode) - 06:11
15. Art Decade (David Bowie) - 03:32
16. Holes (Mercury Rev) - 05:57


Лог создания рипа ▼TextExact Audio Copy V0.99 prebeta 5 from 4. May 2009

EAC extraction logfile from 15. September 2010, 20:32

Various / Q: Essential Chill Out

Used drive : SlimtypeDVD A DL8ATSH Adapter: 1 ID: 0

Read mode : Secure
Utilize accurate stream : Yes
Defeat audio cache : Yes
Make use of C2 pointers : No

Read offset correction : 6
Overread into Lead-In and Lead-Out : No
Fill up missing offset samples with silence : Yes
Delete leading and trailing silent blocks : No
Null samples used in CRC calculations : Yes
Used interface : Native Win32 interface for Win NT & 2000
Gap handling : Appended to previous track

Used output format : User Defined Encoder
Selected bitrate : 320 kBit/s
Quality : High
Add ID3 tag : No
Command line compressor : C:Program Files (x86)Exact Audio CopyFlacflac.exe
Additional command line options : -V -8 -T "artist=%a" -T "title=%t" -T "album=%g" -T "date=%y" -T "tracknumber=%n" -T "genre=%m" %s


TOC of the extracted CD

Track | Start | Length | Start sector | End sector
---------------------------------------------------------
1 | 0:00.00 | 2:36.57 | 0 | 11756
2 | 2:36.57 | 3:02.49 | 11757 | 25455
3 | 5:39.31 | 3:39.44 | 25456 | 41924
4 | 9:19.00 | 5:05.22 | 41925 | 64821
5 | 14:24.22 | 5:39.48 | 64822 | 90294
6 | 20:03.70 | 5:54.50 | 90295
fd7909c2fe11d157d4a709aa1bdb80e02f716851(2000, сборник) VA / Q Magazine. Essential Chill Out (Electronic, Trip Hop, Downtempo) [FLAC (tracks+.cue), lossless] (2000, сборник) VA / Q Magazine. Essential Chill Out (Electronic, Trip Hop, Downtempo) [FLAC (tracks+.cue), lossless] " />

Аплоадер: Админ, дата: 15-05-2012, 23:04, торрент скачан: 359 раз

Понравилась раздача? Посмотрите эти:
  • (2002, Сборник) VA / Chill Out Edition (2xCD) (Lounge, Chillout, Downtempo, ...
  • (2012) Signum / Remixed (Trance) [FLAC (tracks+.cue), Lossless]
  • (2010) Zaz / Zaz (Nu jazz, Chanson, Soul) [FLAC (tracks+.cue), lossless]
  • (2011) Hugh Laurie / Let Them Talk (Blues, Jazz) [FLAC (tracks+.cue), lossl ...
  • (2011) Depeche Mode / Personal Jesus 2011 Club Promo (Electronic, Synthpop) ...
  • (Сборник, 2005-2007) Jens Gad (ex. Enigma) / 3 альбома (Downtempo, Ambient) ...
  • (2011) Foster the People / Torches [Best Buy Exclusive Edition] (Indie / El ...
  • (2011) Виктория - победительница / Victorious (OST) [FLAC (tracks+.cue), lo ...
  • (2011) B.B. King / Icon (Blues) [FLAC (tracks+.cue), lossless]
  • (2012) Marconi Union / Different Colours (Post Rock, Downtempo, Ambient) [F ...
  • (2012, Сборник) VA / The Best Of Lounge 4 (Lounge, Chillout, Jazzy, Downtem ...
  • (2012, Сборник) VA / Saxophone Golden Best (Jazz, Smooth Jazz) [FLAC (track ...
  • (2008, Сборник) VA / Relax Piano - Yesterday - Trai Tim Mua Thu - Vol.7 (Ne ...
  • (2000) Bomfunk MCs / In Stereo (Special 2CD Edition) (Electro, Hip-Hop, Fun ...
  • (2012) Tomandandy / Resident Evil: Retribution (Score, Soundtrack)[FLAC (tr ...
  • (1999) Muffler / Muffler (Drum & Bass) [FLAC (tracks+.cue), lossless]
  • (2011) Mistabishi / Trip (Drum & Bass, Breakbeat) [FLAC (tracks+.cue), loss ...
  • (2010) Morcheeba / Blood Like Lemonade ( Electronic, Downtempo, Pop, Trip-h ...
  • (2011) Дельфин / Существо (Alternative|Experimental) [FLAC (tracks+.cue), l ...
  • (2011) Ленинград / Хна (Rock) [FLAC (tracks+.cue), lossless]
  • (2009) Mystica / Second Dive (Trance, Ambient & Downtempo, Chill Out) [FLAC ...
  • (2011) SeeS / The enD (Progressive/Math Metal) [FLAC (tracks+.cue), lossles ...
  • (2011) The Browning / Burn This World (Deathcore/Electronic) [FLAC (tracks+ ...
  • (2011) Phinehas / Thegodmachine (Metalcore) [FLAC (tracks+.cue), lossless]
  • (2012) Laid Back / Cosmic Vibes (Electronic, Pop, Electro, Downtempo) [FLAC ...
  • Информация
    Посетители, находящиеся в группе Гости, не могут оставлять комментарии к данной публикации.