вход на сайт

Имя пользователя :
Пароль :

Восстановление пароля Регистрация
(2005) Magna Canta / Agnus Dei (Mysticpop, Ambientpop) [FLAC (tracks+.сue), lossless]
Рейтинг:
(голосов: 1)



[img]{THEME}/images/logopost.png[/img]




Исполнитель:Magna Canta
Страна: Germany
Альбом:Agnus Dei
Тип альбома:Студийный
Год выпуска:2005
Жанр:Mysticpop, Ambientpop
Формат: FLAC (tracks+.сue)
Битрейт: lossless
Log-файл: Присутствует
Наличие сканов в содержимом раздачи: Да (600dpi, *.png)
Продолжительность: 00:44:23

Описание: По сути это переиздание первого альбома проекта - Deep Spirits, перевыпускался неоднократно, последняя известная дата 2005 год.

last.fm

Tреклист:
01. Magna Canta - Aethera Et Terra | 05:19
02. Magna Canta - Silentium | 03:54
03. Magna Canta - Agnus Dei | 05:04
04. Magna Canta - Gregoria | 04:43
05. Magna Canta - Hymn | 06:11
06. Magna Canta - Offizium | 03:37
07. Magna Canta - Recordare | 03:34
08. Magna Canta - Cantandus | 04:05
09. Magna Canta - Spiritus Sanctus | 03:47
10. Magna Canta - Sancta Maria | 04:03


Лог создания рипа ▼TextExact Audio Copy V1.0 beta 3 from 29. August 2011

EAC extraction logfile from 5. March 2012, 17:47

Magna Canta / Agnus Dei

Used drive : TSSTcorpCDDVDW SH-S223C Adapter: 1 ID: 4

Read mode : Secure
Utilize accurate stream : Yes
Defeat audio cache : Yes
Make use of C2 pointers : No

Read offset correction : 697
Overread into Lead-In and Lead-Out : No
Fill up missing offset samples with silence : Yes
Delete leading and trailing silent blocks : No
Null samples used in CRC calculations : Yes
Used interface : Native Win32 interface for Win NT & 2000
Gap handling : Appended to previous track

Used output format : User Defined Encoder
Selected bitrate : 1024 kBit/s
Quality : High
Add ID3 tag : No
Command line compressor : C:Program FilesExact Audio CopyFlacflac.exe
Additional command line options : -8 -V -T "ARTIST=%artist%" -T "TITLE=%title%" -T "ALBUM=%albumtitle%" -T "DATE=%year%" -T "TRACKNUMBER=%tracknr%" -T "GENRE=%genre%" -T "COMPOSER=%composer%" -T "COMMENT=ripped by DrStandBy" %source%


TOC of the extracted CD

Track | Start | Length | Start sector | End sector
---------------------------------------------------------
1 | 0:00.00 | 5:19.40 | 0 | 23964
2 | 5:19.40 | 3:54.41 | 23965 | 41555
3 | 9:14.06 | 5:04.49 | 41556 | 64404
4 | 14:18.55 | 4:43.58 | 64405 | 85687
5 | 19:02.38 | 6:11.26 | 85688 | 113538
6 | 25:13.64 | 3:37.03 | 113539 | 129816
7 | 28:50.67 | 3:34.50 | 129817 | 145916
 
77cc25944be3720c7ae93f4d4de3a64d6ca08614(2005) Magna Canta / Agnus Dei (Mysticpop, Ambientpop) [FLAC (tracks+.сue), lossless] (2005) Magna Canta / Agnus Dei (Mysticpop, Ambientpop) [FLAC (tracks+.сue), lossless] " />

Аплоадер: Админ, дата: 10-03-2012, 21:06, торрент скачан: 359 раз

Понравилась раздача? Посмотрите эти:
  • (2013) Prodigy & The Alchemist / Albert Einstein (Underground Hip-Hop) [FLA ...
  • (2012) Lazlo / Lazlo (Electro Swing, Nu Jazz, Electronic) [FLAC (tracks+.cu ...
  • (Дискография, 2001-2005) Magna Canta (New Age, Enigmatic) [MP3, 256-320/CBR ...
  • (2012) Katie Melua / Secret Symphony (Jazz Pop, Vocal Jazz) [FLAC (tracks+. ...
  • (2012) Marconi Union / Different Colours (Post Rock, Downtempo, Ambient) [F ...
  • (2008, Сборник) VA / Relax Piano - Yesterday - Trai Tim Mua Thu - Vol.7 (Ne ...
  • (2012) Tomandandy / Resident Evil: Retribution (Score, Soundtrack)[FLAC (tr ...
  • (1996) The Rasmus / Peep (Finnish Version) (Alternative Rock) [FLAC (tracks ...
  • (2011) Scorpions / Comeblack (Hard Rock) [FLAC (tracks+.cue)lossless]
  • (2011) Дельфин / Существо (Alternative|Experimental) [FLAC (tracks+.cue), l ...
  • (2012) Buckethead / Electric Sea (Experimental/Acoustic/Ambient/Rock) [FLAC ...
  • (2012) Les Friction / Les Friction (Alt. Rock/Neo-Classical/Orchestral) [FL ...
  • (2011) SeeS / The enD (Progressive/Math Metal) [FLAC (tracks+.cue), lossles ...
  • (2012) Bleeding Through / The Great Fire (Symphonic Metalcore/Hardcore) [FL ...
  • (2012) Our Lady Peace / Curve (Alternative/Rock) [FLAC (tracks+.cue), lossl ...
  • (2011) Terra Tenebrosa / The Tunnels (Atmospheric Sludge Post-Metal/Psyched ...
  • (2012) Nine Lashes / World We View (Alt.Rock/Alt.Metal/Christian) [FLAC (tr ...
  • (2011) Phinehas / Thegodmachine (Metalcore) [FLAC (tracks+.cue), lossless]
  • (2012) For Today / Immortal (Metalcore, Hardcore, Christian) [FLAC (tracks+ ...
  • (2004) Magna Canta / Gregorian Mystics (2 CD) (Mysticpop, Enigmatic) [FLAC ...
  • Информация
    Посетители, находящиеся в группе Гости, не могут оставлять комментарии к данной публикации.