вход на сайт

Имя пользователя :
Пароль :

Восстановление пароля Регистрация
(2009) Mystica / Second Dive (Trance, Ambient & Downtempo, Chill Out) [FLAC (image+.сue), lossless]
Рейтинг:
(голосов: 1)



[img]{THEME}/images/logopost.png[/img]



Исполнитель: Mystica
Альбом: Second Dive
Тип альбома: Студийный
Год выпуска: 2009
Страна: Израиль
Лейбл: Phonokol – 2397-2
Жанр: Trance, Ambient & Downtempo, Chill Out
Формат: FLAC (image+.сue)
Битрейт: lossless
Продолжительность: 01:17:38
Источник: Собственный рип

Tреклист:
01. Mystica - Second Dive [06:00]
02. Mystica - Hashkini [05:12]
03. Mystica - African Lullaby [06:11]
04. Mystica - Cosmic Story [06:06]
05. Mystica - Georgian Flute [05:46]
06. Mystica - Angels Violin [06:16]
07. Mystica - My Diana [05:07]
08. Mystica - Ah La Salam [04:43]
09. Mystica - Playing With My Self [05:32]
10. Mystica - Simply Groovy [04:23]
11. Mystica - Spooky [05:15]
12. Mystica - Angels Love [06:00]
13. Mystica - Sweet Innocent [04:43]
14. Mystica - Marina [06:16]

Лог создания рипа ▼TextExact Audio Copy V0.99 prebeta 4 from 23. January 2008

EAC extraction logfile from 24. January 2012, 18:28

Mystica / Second Dive

Used drive : Optiarc DVD RW AD-7260S Adapter: 4 ID: 0

Read mode : Secure
Utilize accurate stream : Yes
Defeat audio cache : Yes
Make use of C2 pointers : No

Read offset correction : 48
Overread into Lead-In and Lead-Out : No
Fill up missing offset samples with silence : Yes
Delete leading and trailing silent blocks : No
Null samples used in CRC calculations : Yes
Used interface : Installed external ASPI interface

Used output format : User Defined Encoder
Selected bitrate : 1024 kBit/s
Quality : High
Add ID3 tag : No
Command line compressor : C:Program FilesExact Audio CopyFLACFLAC.EXE
Additional command line options : -8 -V -T "ARTIST=%a" -T "TITLE=%t" -T "ALBUM=%g" -T "DATE=%y" -T "TRACKNUMBER=%n" -T "GENRE=%m" -T "COMMENT=%e" %s -o %d


TOC of the extracted CD

Track | Start | Length | Start sector | End sector
---------------------------------------------------------
1 | 0:00.00 | 6:00.64 | 0 | 27063
2 | 6:00.64 | 5:12.62 | 27064 | 50525
3 | 11:13.51 | 6:11.65 | 50526 | 78415
4 | 17:25.41 | 6:06.25 | 78416 | 105890
5 | 23:31.66 | 5:46.58 | 105891 | 131898
6 | 29:18.49 | 6:16.22 | 131899 | 160120
7 | 35:34.71 | 5:07.05 | 160121 | 183150
8 | 40:42.01 | 4:43.63 | 183151 | 204438
9 | 45:25.64 | 5:32.47 | 204439 | 229385
10 | 50:58.36 | 4:23.23 |  
fbb91a3569a28f07df5a7eb52202d517bcab7f6d(2009) Mystica / Second Dive (Trance, Ambient & Downtempo, Chill Out) [FLAC (image+.сue), lossless] (2009) Mystica / Second Dive (Trance, Ambient & Downtempo, Chill Out) [FLAC (image+.сue), lossless] " />

Аплоадер: Админ, дата: 24-01-2012, 20:51, торрент скачан: 359 раз

Понравилась раздача? Посмотрите эти:
  • (1996) George Michael / Older (1st Press Japan) (Electronic, Pop/Rock) [FLA ...
  • (2013) Buddy Guy / Rhythm & Blues (2CD) (Blues) [FLAC (image+.cue), Lossles ...
  • (2013) Paul McCartney / New (Deluxe Edition) (Rock) [FLAC (image,+.cue), lo ...
  • (2002, Сборник) VA / Chill Out Edition (2xCD) (Lounge, Chillout, Downtempo, ...
  • (Дискография, 2006-2012) Angels&Airwaves (AVA) (Alternative) [FLAC(tracks+. ...
  • (2010) Schiller / Greatest Hits (2 CD) (Electronic,Downtempo, Trance, Ambi ...
  • (2008) Oceanlab / Sirens Of The Sea (Trance, Progressive Trance) [FLAC (tra ...
  • (2008) The Magic Of Nomads / Bulbul Zaman (folk-ethnic / smooth jazz / inst ...
  • (2010) Zaz / Zaz (Nu jazz, Chanson, Soul) [FLAC (tracks+.cue), lossless]
  • (2011) The Prodigy / Worlds On Fire (Big Beat, Rave) [FLAC (image+.cue), lo ...
  • (Сборник, 2005-2007) Jens Gad (ex. Enigma) / 3 альбома (Downtempo, Ambient) ...
  • (2002) PPK (ППК) / ReLoad. Russian Trance (Trance) [FLAC (tracks+cue), loss ...
  • (2011) Linkin Park / LP Underground 11 (Alternative Rock) [FLAC (Image+cue) ...
  • (Дискография, 1988-2011) Kingdom Come (Hard&Heavy,Glam Metal) [FLAC (image+ ...
  • (2011) B.B. King / Icon (Blues) [FLAC (tracks+.cue), lossless]
  • (2012) Marconi Union / Different Colours (Post Rock, Downtempo, Ambient) [F ...
  • (2009) Enigma (Mystica) - Second Dive - 2009 (New Age/Ambient) [MP3 192-320 ...
  • (2011) Ленинград / Хна (Rock) [FLAC (tracks+.cue), lossless]
  • (2012) Buckethead / Electric Sea (Experimental/Acoustic/Ambient/Rock) [FLAC ...
  • (2012) Anneke van Giersbergen / Everything Is Changing (Alternative Rock/Fe ...
  • (2011) Volumes / Via (Progressive Metalcore/Math Metal) [FLAC (image+.cue), ...
  • (2012) Game Over / For Humanity (Thrash Metal) [FLAC (image+.cue), lossless ...
  • (2000, сборник) VA / Q Magazine. Essential Chill Out (Electronic, Trip Hop, ...
  • (2011) Phinehas / Thegodmachine (Metalcore) [FLAC (tracks+.cue), lossless]
  • (2007, 4xCD Box Set) VA / Simply Brazil (Bossa Nova, Brazilian Jazz, Samba ...
  • Информация
    Посетители, находящиеся в группе Гости, не могут оставлять комментарии к данной публикации.